img image001 image001 image001 image001 image001 image001 image001 image001 image001 image001 image001 image001 image001 image001 image001

Planets Sun Sun Sun
Статистика раздачи
Автор: Nickolas3434 | Размер: 2.19 ГБ | Добавлен: 02 июл 2016
Раздают: 75    Качают: 8
Скачать торрент
Скачать торрент
Описание торрента

СообщениеДобавлено: 02 июл 2016 


Шекспир жив! / Shakespeare Live! From the RSC
Страна: Великобритания
Производство: Royal Shakespeare Company, BBC Television Centre, The Open University, BBC
Год выпуска: 2016
Жанр: мюзикл, биография, комедия
Продолжительность: 02:37:27
Режиссеры: Бриджет Колдуэлл, Грегори Доран, Робин Мэйсон
Автор сценария: Аль Смит
Продюсеры: Кэтрин Стирк, Джон Уайвер
Ведущий: Дэвид Теннант
В ролях: Акала, Ричард Этуилл, Саймон Расселл Бил, Бенедикт Камбербэтч, Ричард Дэвид-Кейн, Джуди Денч, Энн-Мэри Дафф, Джозеф Файнс
Описание: Уникальный двухчасовой концерт, отмечающий 400-летие со дня смерти Уильяма Шекспира. Шоу, в котором участвуют многие знаменитости, посвящено тому влиянию, которое творчество Шекспира оказало на различные сферы искусства — музыка, балет, опера, комедия и мюзикл.

Перевод: отсутствует | субтитры
Субтитры: отдельными файлами (русские, английские)

Качество: HDTVRip
Формат: AVI
Видео кодек: XviD
Аудио кодек: АС3
Видео: 704x400 (16:9), 25.000 fps, XviD build 73 ~1 526 kbps avg
Аудио: 48.0 kHz, AC3 Dolby Digital, 3/2 (L,C,R,l,r) + LFE ch, ~448 kbps | ENG
Формат субтитров: *SRT
Дата премьеры (мир): 23 апреля 2016
General
Полное имя : Shakespeare.Live!From.the.RSC.2016.hdtvrip_[2.18].avi
Формат : AVI
Формат/Информация : Audio Video Interleave
Профиль формата : OpenDML
Размер файла : 2,18 Гбайт
Продолжительность : 2 ч. 37 м.
Общий поток : 1987 Кбит/сек
Программа кодирования : VirtualDubMod 1.5.10.3 | (build 2550/release)
Библиотека кодирования : VirtualDubMod build 2550/release
Видео
Идентификатор : 0
Формат : MPEG-4 Visual
Профиль формата : Advanced Simple@L5
Параметр BVOP формата : 2
Параметр QPel формата : Нет
Параметр GMC формата : Без точки перехода
Параметр матрицы формата : Выборочная
Идентификатор кодека : XVID
Идентификатор кодека/Подсказка : XviD
Продолжительность : 2 ч. 37 м.
Битрейт : 1526 Кбит/сек
Ширина : 704 пикселя
Высота : 400 пикселей
Соотношение сторон : 16:9
Частота кадров : 25,000 кадров/сек
Цветовое пространство : YUV
Субдискретизация насыщенности : 4:2:0
Битовая глубина : 8 бит
Тип развёртки : Прогрессивная
Метод сжатия : С потерями
Бит/(Пиксели*Кадры) : 0.217
Размер потока : 1,68 Гбайт (77%)
Библиотека кодирования : XviD 73
Аудио
Идентификатор : 1
Формат : AC-3
Формат/Информация : Audio Coding 3
Расширение режима : CM (complete main)
Параметр Endianness формата : Big
Идентификатор кодека : 2000
Продолжительность : 2 ч. 37 м.
Вид битрейта : Постоянный
Битрейт : 448 Кбит/сек
Каналы : 6 каналов
Расположение каналов : Front: L C R, Side: L R, LFE
Частота : 48,0 КГц
Битовая глубина : 16 бит
Метод сжатия : С потерями
Размер потока : 505 Мбайт (23%)
Выравнивание : Разделение по промежуткам
Продолжительность промежутка : 40 мс. (1,00 видеокадр)
Время предзагрузки промежутка : 500 мс.




   Похожие торренты   Торрент   Размер 
В этой теме нет новых непрочитанных сообщений. Шекспир жив! / Shakespeare Live! From the RSC (2016) HDTV 1080i | Sub

44 | 8

23.39 ГБ

В этой теме нет новых непрочитанных сообщений. Шекспир без слов (Немой Шекспир) / Silent Shakespeare (1899-1911) DVDRip | Sub

43 | 9

2.3 ГБ

В этой теме нет новых непрочитанных сообщений. Влюблённый Шекспир / Shakespeare in Love (1998) HDTVRip от Deadmauvlad | P | Open Matte

95 | 16

1.46 ГБ

В этой теме нет новых непрочитанных сообщений. Влюблённый Шекспир / Shakespeare in Love (1998) HDTVRip 1080p by msltel | P | Open Matte

22 | 8

8.92 ГБ

В этой теме нет новых непрочитанных сообщений. Влюблённый Шекспир / Shakespeare in Love (1998) HDTVRip 720p by msltel | P | Open Matte

36 | 8

4.15 ГБ

В этой теме нет новых непрочитанных сообщений. Шекспир на новый лад / ShakespeaRe-Told [S01] (2005) DVDRip | TV3 | P

12 | 1

3.99 ГБ

В этой теме нет новых непрочитанных сообщений. Влюбленный Шекспир / Shakespeare in Love (1998) HDRip от Scarabey

13 | 2

2.18 ГБ




Вы не можете начинать темы
Вы не можете отвечать на сообщения
Вы не можете редактировать свои сообщения
Вы не можете удалять свои сообщения
Вы не можете добавлять вложения

Перейти:  
Для Мосгорсуда, Роскомнадзора и рекламодателей: mosgorsud-torrent[собачка]yandex.ru
 Вход
ppkBB3cker v.2 © 2008-2014 @ PPK
[ Time : 2.569s | 14 Queries | GZIP : Off ]

Торрент трекер RUTOR.IN, Не можете зайти на rutor.org? Какой новый адрес рутор? Какое зеркало рутор? Не работает rutor.org и зеркала? Тогда наш торрент специально для вас. Rutor.in неофициальное зеркало rutor. В случае если у Вас заблокирован rutor или вдруг Вы не можете на него зайти, то Вы без труда сможете скачать бесплатно и без рекламы последние новинки кино, игр, сериалов и прочего у нас, на Rutor.in. Не нужно использовать прокси, чтобы зайти на рутор, достаточно воспользоваться нашим ресурсом. Все новые фильмы, игры, сериалы, книги и музыка за 2013 и 2014 годы через торрент бесплатно. Скачивайте фильмы в хорошем качестве, игры для пк, xbox, playstation без регистрации. У нас вы найдете новые Зарубежные сериалы и Русские сериалы 2013, 2014, 2015 годов. Оставайтесь с нами, качайте любимые фильмы, игры, сериалы, книги и музыку.