img image001 image001 image001 image001 image001 image001 image001 image001 image001 image001 image001 image001 image001 image001 image001

Planets Sun Sun Sun
Статистика раздачи
Автор: Nickolas3434 | Размер: 23.39 ГБ | Добавлен: 02 июл 2016
Раздают: 44    Качают: 8
Скачать торрент
Скачать торрент
Описание торрента

СообщениеДобавлено: 02 июл 2016 


Шекспир жив! / Shakespeare Live! From the RSC
Страна: Великобритания
Производство: Royal Shakespeare Company, BBC Television Centre, The Open University, BBC
Год выпуска: 2016
Жанр: мюзикл, биография, комедия
Продолжительность: 02:37:27
Режиссеры: Бриджет Колдуэлл, Грегори Доран, Робин Мэйсон
Автор сценария: Аль Смит
Продюсеры: Кэтрин Стирк, Джон Уайвер
Ведущий: Дэвид Теннант
В ролях: Акала, Ричард Этуилл, Саймон Расселл Бил, Бенедикт Камбербэтч, Ричард Дэвид-Кейн, Джуди Денч, Энн-Мэри Дафф, Джозеф Файнс
Описание: Уникальный двухчасовой концерт, отмечающий 400-летие со дня смерти Уильяма Шекспира. Шоу, в котором участвуют многие знаменитости, посвящено тому влиянию, которое творчество Шекспира оказало на различные сферы искусства — музыка, балет, опера, комедия и мюзикл.

Перевод: отсутствует | субтитры
Субтитры: русские, английские

Качество: HDTV 1080i
Формат: МКV
Видео кодек: AVC
Аудио кодек: АС3
Видео: 1920x1080 (16:9), 25.000 fps, MPEG-2 AVC ~20.2 Мbps avg
Аудио: 48.0 kHz, AC3 Dolby Digital, 3/2 (L,C,R,l,r) + LFE ch, ~640 kbps | ENG
Формат субтитров: UTF-8 Plain Text
Дата премьеры (мир): 23 апреля 2016
General
Уникальный идентификатор : 199601607652948015383659889677597892051 (0x9629DF0E58C6A2CDA0F7E4F8AE275DD3)
Полное имя : Shakespeare Live.mkv
Формат : Matroska
Версия формата : Version 4 / Version 2
Размер файла : 23,4 Гбайт
Продолжительность : 2 ч. 37 м.
Режим общего битрейта : Переменный
Общий поток : 21,3 Мбит/сек
Дата кодирования : UTC 2016-04-29 23:49:49
Программа кодирования : mkvmerge v8.5.0 ('Vanishing Act') 64bit
Библиотека кодирования : libebml v1.3.1 + libmatroska v1.4.2
DURATION : 02:29:45.127000000
NUMBER_OF_FRAMES : 1209
NUMBER_OF_BYTES : 46085
_STATISTICS_WRITING_APP : mkvmerge v8.5.0 ('Vanishing Act') 64bit
_STATISTICS_WRITING_DATE_UTC : 2016-04-29 23:49:49
_STATISTICS_TAGS : BPS DURATION NUMBER_OF_FRAMES NUMBER_OF_BYTES
Видео
Идентификатор : 1
Формат : MPEG Video
Версия формата : Version 2
Профиль формата : Main@High
Параметр BVOP формата : Нет
Параметр матрицы формата : Выборочная
Идентификатор кодека : V_MPEG2
Идентификатор кодека/Информация : MPEG 1 or 2 Video
Продолжительность : 2 ч. 37 м.
Вид битрейта : Переменный
Битрейт : 20,2 Мбит/сек
Максимальный битрейт : 22,5 Мбит/сек
Ширина : 1920 пикселей
Высота : 1080 пикселей
Соотношение сторон : 16:9
Режим частоты кадров : Постоянный
Частота кадров : 25,000 кадров/сек
Цветовое пространство : YUV
Субдискретизация насыщенности : 4:2:0
Битовая глубина : 8 бит
Тип развёртки : Чересстрочная
Порядок развёртки : Верхнее поле первое
Метод сжатия : С потерями
Бит/(Пиксели*Кадры) : 0.390
Временной код первого кадра : 00:00:00:00
Оригинал временного кода : Group of pictures header
Размер потока : 22,2 Гбайт (95%)
Библиотека кодирования : (dvd5: Dec 5 2013)
Default : Да
Forced : Нет
Аудио
Идентификатор : 2
Формат : AC-3
Формат/Информация : Audio Coding 3
Расширение режима : CM (complete main)
Параметр Endianness формата : Big
Идентификатор кодека : A_AC3
Продолжительность : 2 ч. 37 м.
Вид битрейта : Постоянный
Битрейт : 640 Кбит/сек
Каналы : 6 каналов
Расположение каналов : Front: L C R, Side: L R, LFE
Частота : 48,0 КГц
Битовая глубина : 16 бит
Метод сжатия : С потерями
Размер потока : 721 Мбайт (3%)
Default : Да
Forced : Нет
Текст #1
Идентификатор : 3
Формат : UTF-8
Идентификатор кодека : S_TEXT/UTF8
Идентификатор кодека/Информация : UTF-8 Plain Text
Язык : Russian
Default : Да
Forced : Нет
Текст #2
Идентификатор : 4
Формат : UTF-8
Идентификатор кодека : S_TEXT/UTF8
Идентификатор кодека/Информация : UTF-8 Plain Text
Язык : English
Default : Нет
Forced : Нет



   Похожие торренты   Торрент   Размер 
В этой теме нет новых непрочитанных сообщений. Шекспир жив! / Shakespeare Live! From the RSC (2016) HDTVRip | Sub

75 | 8

2.19 ГБ

В этой теме нет новых непрочитанных сообщений. Шекспир без слов (Немой Шекспир) / Silent Shakespeare (1899-1911) DVDRip | Sub

43 | 9

2.3 ГБ

В этой теме нет новых непрочитанных сообщений. Шекспир на новый лад / ShakespeaRe-Told [S01] (2005) DVDRip | TV3 | P

12 | 1

3.99 ГБ

В этой теме нет новых непрочитанных сообщений. Влюбленный Шекспир / Shakespeare in Love (1998) BDRip | 1/2 DVD | от HELLYWOOD

4 | 5

3.18 ГБ

В этой теме нет новых непрочитанных сообщений. Влюбленный Шекспир / Shakespeare in Love (1998) HDRip от Scarabey

13 | 2

2.18 ГБ

В этой теме нет новых непрочитанных сообщений. Влюбленный Шекспир / Shakespeare in Love (1998) BDRip от HQ-ViDEO

8 | 2

2.18 ГБ

В этой теме нет новых непрочитанных сообщений. Влюбленный Шекспир / Shakespeare in Love (1998) HDRip от Scarabey

78 | 5

1.45 ГБ




Вы не можете начинать темы
Вы не можете отвечать на сообщения
Вы не можете редактировать свои сообщения
Вы не можете удалять свои сообщения
Вы не можете добавлять вложения

Перейти:  
Для Мосгорсуда, Роскомнадзора и рекламодателей: mosgorsud-torrent[собачка]yandex.ru
 Вход
ppkBB3cker v.2 © 2008-2014 @ PPK
[ Time : 0.053s | 14 Queries | GZIP : Off ]

Торрент трекер RUTOR.IN, Не можете зайти на rutor.org? Какой новый адрес рутор? Какое зеркало рутор? Не работает rutor.org и зеркала? Тогда наш торрент специально для вас. Rutor.in неофициальное зеркало rutor. В случае если у Вас заблокирован rutor или вдруг Вы не можете на него зайти, то Вы без труда сможете скачать бесплатно и без рекламы последние новинки кино, игр, сериалов и прочего у нас, на Rutor.in. Не нужно использовать прокси, чтобы зайти на рутор, достаточно воспользоваться нашим ресурсом. Все новые фильмы, игры, сериалы, книги и музыка за 2013 и 2014 годы через торрент бесплатно. Скачивайте фильмы в хорошем качестве, игры для пк, xbox, playstation без регистрации. У нас вы найдете новые Зарубежные сериалы и Русские сериалы 2013, 2014, 2015 годов. Оставайтесь с нами, качайте любимые фильмы, игры, сериалы, книги и музыку.