img image001 image001 image001 image001 image001 image001 image001 image001 image001 image001 image001 image001 image001 image001 image001

Planets Sun Sun Sun
Статистика раздачи
Автор: Nickolas3434 | Размер: 1.27 ГБ | Добавлен: 03 июл 2016
Раздают: 9    Качают: 3
Скачать торрент
Скачать торрент
Описание торрента

СообщениеДобавлено: 03 июл 2016 


Информация о фильме
Название: Военный парад и спортивно-молодежное шествие. День Независимости Республики Беларусь
Год выхода: 2016
Жанр: Парад, шествие
О фильме:
Беларусь отмечает главный государственный праздник – День независимости. Беларусь единственная из стран СНГ, в которой день независимости празднуется не в честь выхода из состава СССР, а в ознаменование освобождения Минска от немецко-фашистских захватчиков!
Главный праздник страны ― День независимости Республики Беларусь ― отмечают каждый год летом, 3 июля. Именно 3 июля 1944 года Минск, столицу Беларуси, окончательно освободили от немецко-фашистских захватчиков. Освобождение прошло в рамках операции под кодовым названием «Багратион».
С 1991 года День независимости отмечали 27 июля. Это было связано с датой принятия Декларации о суверенитете. Принятая декларация независимости обрела статус конституционного закона. На ее основании внесли дополнения и изменения в Конституцию 1978 года. Беларусь провозгласила себя независимой от Советского союза республикой 25 августа 1991 года. Формальную независимость Беларусь получила 26 декабря 1991 года. Это было связано с распадом СССР.
В 1996 году на республиканском референдуме было принято решение праздновать День независимости Беларуси 3 июля. Самое зрелищное событие Дня независимости ― это, конечно, военный парад, который по традиции проходит на проспекте Победителей. Парад отдает честь погибшим и ныне живущим ветеранам, которые отстояли страну для будущих поколений. Также парад демонстрирует готовность и доблесть современной белорусской армии.
"Беларусь за годы независимости не дала втянуть себя ни в одну политическую авантюру, не ввязалась ни в один международный конфликт." Об этом заявил Президент Беларуси Александр Лукашенко, выступая 3 июля на параде в ознаменование Дня Независимости Республики Беларусь, передает корреспондент БЕЛТА.
"В ходе недавно прошедшего пятого Всебелорусского народного собрания были выработаны основные направления развития страны на предстоящий период, - отметил глава государства. - Этот всенародный форум продемонстрировал сплоченность нашего общества, миролюбивую, многовекторную политику государства, основанную на принципах добрососедства и сотрудничества". "Мы тесно взаимодействуем с нашими союзниками, и прежде всего с братской Россией. Развиваем диалог с соседями и странами Запада", - подчеркнул Президент. Александр Лукашенко заявил: "За годы независимости мы не дали втянуть себя ни в одну политическую авантюру, не ввязались ни в один международный конфликт. Мы уверенно смотрим в будущее и бережно храним славную историю нашей страны". "Вечная память героям, павшим в боях за Отчизну. Будем же достойны их великого подвига, - напутствовал глава государства. - Желаю всем мира, добра, счастья, здоровья и успехов в труде на благо нашей Родины. Слава белорусскому народу, отстоявшему свободу и независимость Отечества. Слава нашей Родине - Республике Беларусь. Слава ее доблестным Вооруженным Силам. С праздником вас - Днем Независимости!".
Военнослужащие Воздушно-десантных войск Вооруженных Сил Российской Федерации приняли участие в торжественном параде, а так же зрители увидели разведывательно-ударные вертолеты Ка-52 «Аллигатор» 39-го вертолетного полка (Джанкой, Крым), новейшие бомбардировщики Су-34 559-го отдельного бомбардировочного авиационного полка (Морозовск, Ростовская область) и истребители Су-30 31-го истребительного авиаполка (Миллерово, Ростовская область), что свидетельствует о тесном сотрудничестве двух Братских Народа!
Доп. информация: Запись потока *.ts с наземного цифрового телеканала "Беларусь 1", ремукс в *.mkv программой VideoReDo.
Страна: Республика Беларусь
Студия: Белтелерадиокомпания
Продолжительность: 01:09:39
Перевод: не требует
Файл
Кодек: AVC (H264)
Качество: DVB
Видео: MPEG4 Video (H264) 720x576 (49:36) 25fps, 2 297 Kbps
Звук: MPEG Audio 48000Hz stereo 256kbps
Код:
General
Unique ID                      : 160471895277168245396035598522679225459 (0x78B9C34922515685EC3B522460A2EC73)
Complete name                  : D:Новая  земля 2КонцертыДень Победы и День НезависимостиДень Независимости 2016Военный парад посвященный Дню Независимости Республики Беларусь 2016.mkv
Format                         : Matroska
Format version                 : Version 2
File size                      : 1.27 GiB
Duration                       : 1h 9mn
Overall bit rate               : 2 605 Kbps
Writing application            : Lavf52.64.2
Writing library                : Lavf52.64.2
Video
ID                             : 1
Format                         : AVC
Format/Info                    : Advanced Video Codec
Format profile                 : Main@L3.0
Format settings, CABAC         : Yes
Format settings, ReFrames      : 4 frames
Codec ID                       : V_MPEG4/ISO/AVC
Duration                       : 1h 9mn
Bit rate                       : 2 297 Kbps
Width                          : 720 pixels
Height                         : 576 pixels
Display aspect ratio           : 4:3
Original display aspect ratio  : 4:3
Frame rate mode                : Constant
Frame rate                     : 25.000 fps
Standard                       : PAL
Color space                    : YUV
Chroma subsampling             : 4:2:0
Bit depth                      : 8 bits
Scan type                      : MBAFF
Scan order                     : Top Field First
Bits/(Pixel*Frame)             : 0.222
Stream size                    : 1.12 GiB (88%)
Default                        : Yes
Forced                         : No
Color primaries                : BT.601 PAL
Transfer characteristics       : BT.470 System B, BT.470 System G
Matrix coefficients            : BT.601
Color range                    : Limited
Audio
ID                             : 2
Format                         : MPEG Audio
Format version                 : Version 1
Format profile                 : Layer 2
Codec ID                       : A_MPEG/L2
Codec ID/Hint                  : MP2
Duration                       : 1h 9mn
Bit rate mode                  : Constant
Bit rate                       : 256 Kbps
Channel(s)                     : 2 channels
Sampling rate                  : 48.0 KHz
Compression mode               : Lossy
Stream size                    : 128 MiB (10%)
Language                       : English
Default                        : Yes
Forced                         : No
 



   Похожие торренты   Торрент   Размер 
В этой теме нет новых непрочитанных сообщений. Военный парад и спортивно-молодежное шествие. День Независимости Республики Беларусь (2017) DVB от AND03AND

2 | 1

1.68 ГБ

В этой теме нет новых непрочитанных сообщений. Военный парад и спортивно-молодежное шествие посвященные Дню Независимости Республики Беларусь (2014) SATRip от AND03AND

5 | 127

1.42 ГБ

В этой теме нет новых непрочитанных сообщений. Я люблю Беларусь! Концерт посвященный Дню Независимости Республики Беларусь (Дню Республики) (2012) SATRip от AND01AND

0 | 2

1.76 ГБ

В этой теме нет новых непрочитанных сообщений. Гала-концерт - Беларусь маладая мая... День Независимости (День Республики) (Прямая трансляция) (2017) DVB от AND03AND

1 | 0

4.36 ГБ

В этой теме нет новых непрочитанных сообщений. День защитников Отечества и Вооруженных Сил Республики Беларусь (2016) DVB от AND03AND

3 | 7

1.97 ГБ

В этой теме нет новых непрочитанных сообщений. Военный парад в Киеве ко Дню Независимости Украины (2016) HDTVRip

168 | 6

1.13 ГБ

В этой теме нет новых непрочитанных сообщений. J:Морс и Президентский оркестр Республики Беларусь. Беларускае золата (2016) BD DVB от AND03AND

3 | 0

1.08 ГБ




Вы не можете начинать темы
Вы не можете отвечать на сообщения
Вы не можете редактировать свои сообщения
Вы не можете удалять свои сообщения
Вы не можете добавлять вложения

Перейти:  
Для Мосгорсуда, Роскомнадзора и рекламодателей: mosgorsud-torrent[собачка]yandex.ru
 Вход
ppkBB3cker v.2 © 2008-2014 @ PPK
[ Time : 0.049s | 15 Queries | GZIP : Off ]

cron