img image001 image001 image001 image001 image001 image001 image001 image001 image001 image001 image001 image001 image001 image001 image001

Planets Sun Sun Sun
Статистика раздачи
Автор: Nickolas3434 | Размер: 1.04 ГБ | Добавлен: 07 июл 2016
Раздают: 1    Качают: 3
Скачать торрент
Скачать торрент
Описание торрента

СообщениеДобавлено: 07 июл 2016 


Информация о фильме
Название: К 85-летию народного артиста СССР Ростислава Янковского
Год выхода: 2015
Жанр: Творческий вечер
О фильме:
Когда сцена становится жизнью. Народный артист Советского Союза Ростислав Янковский отмечает 5 февраля свой юбилей. Актеру исполнилось 85. 60 лет он посвятил театру имени Горького, на сцене которого им было сыграно больше сотни ролей. Кроме театральной сложилась у Ростислава Янковского и кинокарьера. Только «Беларусьфильм» выпустил больше десяти картин с его участием. Свой творческий след актер оставил и в российском кинематографе. Правда, как признается сам мэтр, главной страстью для него всегда оставался театр, который захватил еще в молодости и не отпускает по сей день.
Ростислав Янковский, народный артист СССР:
У меня два дома. Есть дом с любимой женой, с внуками. А есть театр. Это радость. Когда играешь спектакль, меня жена ждет с ужином. И видят, когда я с цветами или без цветов прихожу. Но я весь на подъеме.
Несмотря на свой возраст, Ростислав Иванович по-прежнему живет сценой. В театре он исполняет главные роли в четырех спектаклях. Свой день рождения по традиции артист проведет на сцене. В юбилейный вечер в театре Горького соберутся коллеги, друзья и поклонники. Свои поздравления юбиляру направил и президент Александр Лукашенко
Доп. информация:
Благодарность: за помощь с недостающим материалом Bartimeyse и PavelDAS. Обоим большое спасибо!

Запись потока *.ts с наземного цифрового телеканала "Беларусь 3", ремукс в *.mkv программой VideoReDo.
Страна: Республика Беларусь
Студия: Белтелерадиокомпания
Продолжительность: 00:59:14
Перевод: не требует
Файл
Кодек: AVC (H264)
Качество: DVB
Видео: AVC (H264), 720x576 (4:3), 25 fps, 2 207 Kbps
Звук: MP2, 256 kbps, 2 channels, 48 kHz
Семпл
Код:
General
Unique ID                      : 61290302295682020079001709675719157436 (0x2E1C15359A967DDFDC507190B447E6BC)
Complete name                  : D:Новая  земля 2Театр�02 Творческие вечераК 85-летию народного артиста СССР Ростислава Янковского (2015)К 85-летию народного артиста СССР Ростислава Янковского (2015).mkv
Format                         : Matroska
Format version                 : Version 2
File size                      : 1.04 GiB
Duration                       : 59mn 14s
Overall bit rate               : 2 513 Kbps
Writing application            : Lavf52.64.2
Writing library                : Lavf52.64.2
Video
ID                             : 1
Format                         : AVC
Format/Info                    : Advanced Video Codec
Format profile                 : Main@L3.0
Format settings, CABAC         : Yes
Format settings, ReFrames      : 4 frames
Codec ID                       : V_MPEG4/ISO/AVC
Duration                       : 59mn 14s
Bit rate                       : 2 207 Kbps
Width                          : 720 pixels
Height                         : 576 pixels
Display aspect ratio           : 4:3
Original display aspect ratio  : 4:3
Frame rate mode                : Constant
Frame rate                     : 25.000 fps
Standard                       : PAL
Color space                    : YUV
Chroma subsampling             : 4:2:0
Bit depth                      : 8 bits
Scan type                      : MBAFF
Scan order                     : Top Field First
Bits/(Pixel*Frame)             : 0.213
Stream size                    : 935 MiB (88%)
Default                        : Yes
Forced                         : No
Color primaries                : BT.601 PAL
Transfer characteristics       : BT.470 System B, BT.470 System G
Matrix coefficients            : BT.601
Color range                    : Limited
Audio
ID                             : 2
Format                         : MPEG Audio
Format version                 : Version 1
Format profile                 : Layer 2
Codec ID                       : A_MPEG/L2
Codec ID/Hint                  : MP2
Duration                       : 59mn 14s
Bit rate mode                  : Constant
Bit rate                       : 256 Kbps
Channel(s)                     : 2 channels
Sampling rate                  : 48.0 KHz
Compression mode               : Lossy
Stream size                    : 108 MiB (10%)
Language                       : English
Default                        : Yes
Forced                         : No





   Похожие торренты   Торрент   Размер 
В этой теме нет новых непрочитанных сообщений. Золотые песни. Концерт народного артиста Беларуси Якова Науменко (200X) DVB от AND03AND

16 | 5

1.23 ГБ

В этой теме нет новых непрочитанных сообщений. Нам не жить друг без друга - Творческий вечер Александры Пахмутовой / Славянский базар в Витебске (2015) DVB от AND03AND

25 | 15

1.63 ГБ

В этой теме нет новых непрочитанных сообщений. Нам не жить друг без друга - Творческий вечер Александры Пахмутовой / Славянский базар в Витебске (2015) DVB от AND03AND

2 | 4

1.58 ГБ

В этой теме нет новых непрочитанных сообщений. Лев Дуров. Творческий вечер (2012) DVB от AND03AND

105 | 5

1.25 ГБ

В этой теме нет новых непрочитанных сообщений. Римма Маркова. Творческий вечер (2012) DVB от AND03AND

5 | 5

1.42 ГБ

В этой теме нет новых непрочитанных сообщений. Балет и Опера - Кто я? / Медведь / Юбилейный вечер к 80-летию Сергея Кортеса (2015) DVB от AND03AND

2 | 7

1.49 ГБ

В этой теме нет новых непрочитанных сообщений. Славянский базар 2010. Творческий вечер Раймонда Паулса (2010) DVB от AND03AND

1 | 0

1.35 ГБ




Вы не можете начинать темы
Вы не можете отвечать на сообщения
Вы не можете редактировать свои сообщения
Вы не можете удалять свои сообщения
Вы не можете добавлять вложения

Перейти:  
Для Мосгорсуда, Роскомнадзора и рекламодателей: mosgorsud-torrent[собачка]yandex.ru
 Вход
ppkBB3cker v.2 © 2008-2014 @ PPK
[ Time : 0.037s | 15 Queries | GZIP : Off ]

Торрент трекер RUTOR.IN, Не можете зайти на rutor.org? Какой новый адрес рутор? Какое зеркало рутор? Не работает rutor.org и зеркала? Тогда наш торрент специально для вас. Rutor.in неофициальное зеркало rutor. В случае если у Вас заблокирован rutor или вдруг Вы не можете на него зайти, то Вы без труда сможете скачать бесплатно и без рекламы последние новинки кино, игр, сериалов и прочего у нас, на Rutor.in. Не нужно использовать прокси, чтобы зайти на рутор, достаточно воспользоваться нашим ресурсом. Все новые фильмы, игры, сериалы, книги и музыка за 2013 и 2014 годы через торрент бесплатно. Скачивайте фильмы в хорошем качестве, игры для пк, xbox, playstation без регистрации. У нас вы найдете новые Зарубежные сериалы и Русские сериалы 2013, 2014, 2015 годов. Оставайтесь с нами, качайте любимые фильмы, игры, сериалы, книги и музыку.
cron