img image001 image001 image001 image001 image001 image001 image001 image001 image001 image001 image001 image001 image001 image001 image001 image001

Planets Sun Sun Sun
Статистика раздачи
Автор: PriZraK | Размер: 2.92 ГБ | Добавлен: 12 июл 2016
Раздают: 27    Качают: 4
Скачать торрент
Скачать торрент
Описание торрента

СообщениеДобавлено: 12 июл 2016 


Информация о фильме
Название: Операция «Багратион». Хроника победы
Год выхода: 2009
Жанр: Хроникально-документальный
Режиссер: Денис Скворцов
О фильме:
Операция «Багратион» входит в число Великих Побед, таких как битвы за Москву, Сталинград, Курск. Документальный сериал раскрывает суть уникального режима секретности и дезинформации противника накануне операции «Багратион», ход всей операции и беспримерный героизм советских солдат.
Доп. информация:
Запись потока *.ts с наземного цифрового телеканала "Беларусь 3".
Благодарность: за помощь с недостающим материалом Bartimeyse и PavelDAS. Обоим большое спасибо!
Страна: Республика Беларусь
Студия: Белтелерадиокомпания
Продолжительность: 6*~00:26:00
Перевод: не требует
Файл
Кодек: AVC (H264)
Качество: DVB
Видео: MPEG4 Video (H264) 720(785)x576 (49:36) 25fps, 2 267 Kbps
Звук: MPEG Audio 48000Hz stereo 256kbps
Сэмпл: https://www.sendspace.com/file/i33pgd
Код:
01 Западное направление.ts
02 Направление главного удара.ts
03 Чайная роза отцвела.ts
04 Канны на Березине.ts
05 Минск.ts
06 Освобождение.ts


Код:
General
ID                             : 1 (0x1)
Complete name                  : D:Новая  земля 20001Операция «Багратион». Хроника победы (2009)Операция «Багратион». Хроника победы (2009)1 Западное направление.ts
Format                         : MPEG-TS
File size                      : 501 MiB
Duration                       : 26mn 20s
Overall bit rate mode          : Variable
Overall bit rate               : 2 657 Kbps
Video
ID                             : 801 (0x321)
Menu ID                        : 1 (0x1)
Format                         : AVC
Format/Info                    : Advanced Video Codec
Format profile                 : Main@L3.0
Format settings, CABAC         : Yes
Format settings, ReFrames      : 4 frames
Codec ID                       : 27
Duration                       : 26mn 20s
Bit rate                       : 2 267 Kbps
Width                          : 720 pixels
Height                         : 576 pixels
Display aspect ratio           : 4:3
Frame rate                     : 25.000 fps
Standard                       : PAL
Color space                    : YUV
Chroma subsampling             : 4:2:0
Bit depth                      : 8 bits
Scan type                      : MBAFF
Scan order                     : Top Field First
Bits/(Pixel*Frame)             : 0.219
Stream size                    : 427 MiB (85%)
Color primaries                : BT.601 PAL
Transfer characteristics       : BT.470 System B, BT.470 System G
Matrix coefficients            : BT.601
Color range                    : Limited
Audio
ID                             : 802 (0x322)
Menu ID                        : 1 (0x1)
Format                         : MPEG Audio
Format version                 : Version 1
Format profile                 : Layer 2
Codec ID                       : 3
Duration                       : 26mn 20s
Bit rate mode                  : Constant
Bit rate                       : 256 Kbps
Channel(s)                     : 2 channels
Sampling rate                  : 48.0 KHz
Compression mode               : Lossy
Stream size                    : 48.2 MiB (10%)
Language                       : English
 




   Похожие торренты   Торрент   Размер 
В этой теме нет новых непрочитанных сообщений. Парад века. Знамя победы (2009) DVB от AND03AND

2 | 0

757.71 МБ

В этой теме нет новых непрочитанных сообщений. Торжественное собрание и концерт, посвященные Дню Победы / Площадь Победы - 2017 (Минск, Беларусь) (09.05.2017) DVB от AND03AND

0 | 0

3.67 ГБ

В этой теме нет новых непрочитанных сообщений. Грани Победы [01-08, 10 из 10] (2014) DVB от AND03AND

17 | 2

4.12 ГБ

В этой теме нет новых непрочитанных сообщений. Символ Победы [09 из 09] (2013) SATRip от AND03AND

49 | 5

3.32 ГБ

В этой теме нет новых непрочитанных сообщений. Хроника Минского гетто [01-03 из 03] (2013, 2015, 2017) DVB от AND03AND

1 | 0

2.81 ГБ

В этой теме нет новых непрочитанных сообщений. Полесская хроника. Люди на болоте (01-08 серий из 08) (1984) DVB от AND03AND

3 | 0

9.34 ГБ

В этой теме нет новых непрочитанных сообщений. Георгий Жуков. Война и мир Маршала Победы (2010) SATRip от AND03AND

36 | 7

399.38 МБ




Вы не можете начинать темы
Вы не можете отвечать на сообщения
Вы не можете редактировать свои сообщения
Вы не можете удалять свои сообщения
Вы не можете добавлять вложения

Перейти:  
 Вход
ppkBB3cker v.2 © 2008-2014 @ PPK
[ Time : 0.028s | 15 Queries | GZIP : Off ]

cron