img image001 image001 image001 image001 image001 image001 image001 image001 image001 image001 image001 image001 image001 image001 image001

Planets Sun Sun Sun
Статистика раздачи
Автор: Nickolas3434 | Размер: 693.69 МБ | Добавлен: 03 авг 2016
Раздают: 74    Качают: 3
Скачать торрент
Скачать торрент
Описание торрента

СообщениеДобавлено: 03 авг 2016 

Цари Океанов


#77
Год выпуска: 2016
Страна: Россия | Первый Канал HD | Медиа Конструктор
Жанр: Документальный
Продолжительность: 00:51:25
Продюсеры: Данила Шарапов, Людмила Снигирева, Олег Вольнов.
Автор: Айгуль Ербулова
Режиссер: Олег Кравченко

Описание: Этот фильм о самых засекреченных военных проектах России - подводных лодках четвертого поколения проекта 955 «Борей» и проекта 885 «Ясень». Впервые конструкторы и строители самого грозного оружия России приоткроют военные тайны и расскажут о том, как создаются подводные лодки на предприятиях Объединенной судостроительной корпорации - в конструкторских бюро и на заводе «Севмаш».

Автор рипа: lrn
Автор записи: Alexin29
Сэмпл: sendfile

Тип релиза: HDTVRip-AVC
Контейнер: MKV
Видео: 1024x576 (16:9), 25,000 fps, H264, ~1500 kbps avg, ~0.102 bit/pixel
Аудио: 48 kHz, AC3 Dolby Digital, 3/2 (L,C,R,l,r) + LFE ch, ~384.00 kbps avg

General
Unique ID : 209182679526324704287211223119249823483 (0x9D5F1E5ED7D4F32BA6F2953BE45856FB)
Complete name : E:uTorrent.TempTempTsari.Okeanov.2016.HDTVRip-AVC.x264-lrn.mkv
Format : Matroska
Format version : Version 4 / Version 2
File size : 694 MiB
Duration : 51 min
Overall bit rate : 1 886 kb/s
Movie name : Tsari.Okeanov.2016.HDTVRip-AVC.x264-lrn
Encoded date : UTC 2010-02-22 21:41:31
Writing application : mkvmerge v5.9.0 ('On The Loose') built on Dec 9 2012 15:37:01
Writing library : libebml v1.3.0 + libmatroska v1.4.0
Video
ID : 1
Format : AVC
Format/Info : Advanced Video Codec
Format profile : High@L4.1
Format settings, CABAC : Yes
Format settings, ReFrames : 8 frames
Codec ID : V_MPEG4/ISO/AVC
Duration : 51 min
Bit rate : 1 500 kb/s
Width : 1 024 pixels
Height : 576 pixels
Display aspect ratio : 16:9
Frame rate mode : Constant
Frame rate : 25.000 FPS
Color space : YUV
Chroma subsampling : 4:2:0
Bit depth : 8 bits
Scan type : Progressive
Bits/(Pixel*Frame) : 0.102
Stream size : 539 MiB (78%)
Writing library : x264 core 148 r2638 7599210
Encoding settings : cabac=1 / ref=8 / deblock=1:-3:-3 / analyse=0x3:0x133 / me=umh / subme=9 / psy=1 / psy_rd=1.00:0.00 / mixed_ref=1 / me_range=32 / chroma_me=1 / trellis=2 / 8x8dct=1 / cqm=0 / deadzone=21,11 / fast_pskip=1 / chroma_qp_offset=-2 / threads=12 / lookahead_threads=2 / sliced_threads=0 / nr=0 / decimate=1 / interlaced=0 / bluray_compat=0 / constrained_intra=0 / bframes=8 / b_pyramid=2 / b_adapt=2 / b_bias=0 / direct=3 / weightb=1 / open_gop=0 / weightp=2 / keyint=250 / keyint_min=25 / scenecut=40 / intra_refresh=0 / rc_lookahead=50 / rc=2pass / mbtree=1 / bitrate=1500 / ratetol=1.0 / qcomp=0.60 / qpmin=0 / qpmax=69 / qpstep=4 / cplxblur=20.0 / qblur=0.5 / vbv_maxrate=62500 / vbv_bufsize=78125 / nal_hrd=none / filler=0 / ip_ratio=1.40 / aq=1:1.00
Default : Yes
Forced : No
Statistics Tags Issue : mkvmerge v8.5.2 ('Crosses') 32bit 2016-08-01 20:15:34 / mkvmerge v5.9.0 ('On The Loose') built on Dec 9 2012 15:37:01 2010-02-22 21:41:31
FromStats_BitRate : 1500063
FromStats_Duration : 00:51:25.960000000
FromStats_FrameCount : 77149
FromStats_StreamSize : 578641910
Audio
ID : 2
Format : AC-3
Format/Info : Audio Coding 3
Mode extension : CM (complete main)
Format settings, Endianness : Big
Codec ID : A_AC3
Duration : 51 min
Bit rate mode : Constant
Bit rate : 384 kb/s
Channel(s) : 6 channels
Channel positions : Front: L C R, Side: L R, LFE
Sampling rate : 48.0 kHz
Frame rate : 31.250 FPS (1536 spf)
Compression mode : Lossy
Delay relative to video : 200 ms
Stream size : 141 MiB (20%)
Language : Russian
Default : Yes
Forced : No
raw [info]: 1024x576p 1:1 @ 25/1 fps (cfr)
x264 [info]: using SAR=1/1
x264 [info]: using cpu capabilities: MMX2 SSE2Fast SSSE3 SSE4.2 AVX
x264 [info]: profile High, level 4.1
x264 [info]: frame I:834 Avg QP:18.77 size: 54079
x264 [info]: frame P:21922 Avg QP:22.06 size: 14883
x264 [info]: frame B:54393 Avg QP:24.17 size: 3811
x264 [info]: consecutive B-frames: 5.1% 7.1% 9.9% 52.1% 10.5% 12.6% 1.3% 1.0% 0.5%
x264 [info]: mb I I16..4: 11.6% 70.8% 17.6%
x264 [info]: mb P I16..4: 4.2% 9.4% 1.0% P16..4: 47.2% 13.4% 11.1% 0.5% 0.1% skip:13.2%
x264 [info]: mb B I16..4: 0.3% 0.7% 0.1% B16..8: 36.8% 4.8% 1.0% direct: 4.2% skip:52.1% L0:39.6% L1:49.6% BI:10.8%
x264 [info]: 8x8 transform intra:64.7% inter:71.9%
x264 [info]: direct mvs spatial:91.2% temporal:8.8%
x264 [info]: coded y,uvDC,uvAC intra: 58.0% 65.5% 22.9% inter: 13.8% 20.1% 0.4%
x264 [info]: i16 v,h,dc,p: 29% 19% 6% 46%
x264 [info]: i8 v,h,dc,ddl,ddr,vr,hd,vl,hu: 11% 13% 6% 8% 12% 12% 14% 11% 14%
x264 [info]: i4 v,h,dc,ddl,ddr,vr,hd,vl,hu: 13% 13% 4% 8% 13% 12% 14% 10% 14%
x264 [info]: i8c dc,h,v,p: 31% 33% 19% 17%
x264 [info]: Weighted P-Frames: Y:8.2% UV:5.8%
x264 [info]: ref P L0: 54.9% 15.0% 15.4% 4.4% 3.6% 2.6% 2.4% 1.5% 0.3% 0.0%
x264 [info]: ref B L0: 83.6% 9.1% 3.5% 1.6% 1.1% 0.7% 0.4%
x264 [info]: ref B L1: 95.8% 4.2%
x264 [info]: kb/s:1500.06
encoded 77149 frames, 24.26 fps, 1500.06 kb/s



   Похожие торренты   Торрент   Размер 
В этой теме нет новых непрочитанных сообщений. Цари океанов (2016) HDTVRip от GeneralFilm

1460 | 30

697.16 МБ

В этой теме нет новых непрочитанных сообщений. Цари Океанов (2016) HDTVRip 720p

502 | 41

1.58 ГБ

В этой теме нет новых непрочитанных сообщений. Тайна трех океанов (2014) HDTVRip от -=HD-NET=-

222 | 24

701.95 МБ

В этой теме нет новых непрочитанных сообщений. Тайна трех океанов (2014) HDTVRip от GeneralFilm

2178 | 241

629.42 МБ

В этой теме нет новых непрочитанных сообщений. Миссия: Спасение океанов / Mission: Save The Ocean [S01] (2013) HDTVRip 1080p от MediaClub | D

0 | 1

5.54 ГБ

В этой теме нет новых непрочитанных сообщений. Цари и пророки / Of Kings and Prophets [01х01 из 13] (2016) WEB-DL 720p| IdeaFilm

138 | 4

1.16 ГБ

В этой теме нет новых непрочитанных сообщений. Цари и пророки / Of Kings and Prophets [01х01-02 из 13] (2016) WEB-DLRip | IdeaFilm

378 | 7

599.78 МБ




Вы не можете начинать темы
Вы не можете отвечать на сообщения
Вы не можете редактировать свои сообщения
Вы не можете удалять свои сообщения
Вы не можете добавлять вложения

Перейти:  
Для Мосгорсуда, Роскомнадзора и рекламодателей: mosgorsud-torrent[собачка]yandex.ru
 Вход
ppkBB3cker v.2 © 2008-2014 @ PPK
[ Time : 0.076s | 15 Queries | GZIP : Off ]

Торрент трекер RUTOR.IN, Не можете зайти на rutor.org? Какой новый адрес рутор? Какое зеркало рутор? Не работает rutor.org и зеркала? Тогда наш торрент специально для вас. Rutor.in неофициальное зеркало rutor. В случае если у Вас заблокирован rutor или вдруг Вы не можете на него зайти, то Вы без труда сможете скачать бесплатно и без рекламы последние новинки кино, игр, сериалов и прочего у нас, на Rutor.in. Не нужно использовать прокси, чтобы зайти на рутор, достаточно воспользоваться нашим ресурсом. Все новые фильмы, игры, сериалы, книги и музыка за 2013 и 2014 годы через торрент бесплатно. Скачивайте фильмы в хорошем качестве, игры для пк, xbox, playstation без регистрации. У нас вы найдете новые Зарубежные сериалы и Русские сериалы 2013, 2014, 2015 годов. Оставайтесь с нами, качайте любимые фильмы, игры, сериалы, книги и музыку.