img image001 image001 image001 image001 image001 image001 image001 image001 image001 image001 image001 image001 image001 image001 image001

Planets Sun Sun Sun
Статистика раздачи
Автор: Nickolas3434 | Размер: 2.64 ГБ | Добавлен: 04 авг 2016
Раздают: 0    Качают: 0
Скачать торрент
Скачать торрент
Описание торрента

СообщениеДобавлено: 04 авг 2016 


Без ума от Tiffany / Crazy About Tiffany's
Страна: США
Год выпуска: 2016
Жанр: документальный
Продолжительность: 01:26:57
Режиссер: Мэттью Миле
Автор сценария: Мэттью Миле
В ролях: Джессика Бил, Кэти Курик, Эми Файн-Коллинз, Фран Лебовитц, Баз Лурман, Катрин Мартин, Сэм Тейлор-Джонсон
Описание: Фильм рассказывает невероятную историю о том, как небольшой нью-йоркский ювелирный магазин, открытый Чарльзом Льюисом Тиффани в 1837 году, стал частью американской культуры и уникальным глобальным феноменом...

Перевод: отсутствует | субтитры
Субтитры: английские (UTF-8 Plain Text), русские (ASS) - отдельным файлом / by alexwinson

Качество: WEBRip 720p
Формат: МКV
Видео кодек: AVC
Аудио кодек: АС3
Видео: 1280x718 (16:9), 23.976 fps, MPEG-4 AVC ~3 879 kbps avg
Аудио: 48.0 kHz, AC3 Dolby Digital, 3/2 (L,C,R,l,r) + LFE ch, ~384 kbps avg | ENG
Дата премьеры (мир): 19 февраля 2016
Дата премьеры (РФ): 2 июня 2016, «ЦДК»
General
Unique ID : 201064063205832178489485526539463384562 (0x974387AE8708EF4B96C2A85703015DF2)
Format : Matroska
Format version : Version 4 / Version 2
File size : 2.64 GiB
Duration : 1h 26mn
Overall bit rate : 4 350 Kbps
Encoded date : UTC 2016-04-11 07:16:25
Writing application : mkvmerge v9.0.1 ('Obstacles') 64bit
Writing library : libebml v1.3.3 + libmatroska v1.4.4
Video
ID : 1
Format : AVC
Format/Info : Advanced Video Codec
Format profile : High@L3.1
Format settings, CABAC : No
Format settings, ReFrames : 2 frames
Codec ID : V_MPEG4/ISO/AVC
Duration : 1h 26mn
Bit rate : 3 879 Kbps
Width : 1 280 pixels
Height : 718 pixels
Display aspect ratio : 16:9
Frame rate mode : Constant
Frame rate : 23.976 fps
Color space : YUV
Chroma subsampling : 4:2:0
Bit depth : 8 bits
Scan type : Progressive
Bits/(Pixel*Frame) : 0.176
Stream size : 2.36 GiB (89%)
Language : English
Default : Yes
Forced : No
Color range : Limited
Color primaries : BT.709
Transfer characteristics : BT.709
Matrix coefficients : BT.709
Audio
ID : 2
Format : AC-3
Format/Info : Audio Coding 3
Mode extension : CM (complete main)
Format settings, Endianness : Big
Codec ID : A_AC3
Duration : 1h 26mn
Bit rate mode : Constant
Bit rate : 384 Kbps
Channel(s) : 6 channels
Channel positions : Front: L C R, Side: L R, LFE
Sampling rate : 48.0 KHz
Compression mode : Lossy
Stream size : 239 MiB (9%)
Language : English
Default : Yes
Forced : No
Text
ID : 3
Format : UTF-8
Codec ID : S_TEXT/UTF8
Codec ID/Info : UTF-8 Plain Text
Language : English
Default : Yes
Forced : No
Menu
00:00:00.000 : en:Chapter 1
00:08:13.000 : en:Chapter 2
00:16:41.000 : en:Chapter 3
00:25:33.000 : en:Chapter 4
00:34:07.000 : en:Chapter 5
00:42:27.000 : en:Chapter 6
00:51:26.000 : en:Chapter 7
00:59:22.000 : en:Chapter 8
01:08:25.000 : en:Chapter 9
01:16:01.000 : en:Chapter 10
01:22:39.000 : en:Chapter 11




   Похожие торренты   Торрент   Размер 
В этой теме нет новых непрочитанных сообщений. Tiffany - I Just Wanna Dance (2016) FLAC

0 | 0

149.2 МБ

В этой теме нет новых непрочитанных сообщений. Завтрак у Тиффани / Breakfast at Tiffany's (1961) BDRip 720p от FireBit

4 | 1

4.92 ГБ

В этой теме нет новых непрочитанных сообщений. Завтрак у Тиффани / Breakfast at Tiffany's (1961) BDRip 720p by msltel | 4 x P, 3 x A

63 | 24

6.51 ГБ

В этой теме нет новых непрочитанных сообщений. Tiffany Evans - All Me (2015) FLAC

0 | 0

170.99 МБ

В этой теме нет новых непрочитанных сообщений. Завтрак у Тиффани / Breakfast at Tiffany's (1961) Blu-Ray CEE

13 | 4

45.09 ГБ

В этой теме нет новых непрочитанных сообщений. OST - Завтрак у Тиффани / Breakfast at Tiffany's (2013) MP3

1 | 0

396.19 МБ

В этой теме нет новых непрочитанных сообщений. Завтрак у Тиффани / Breakfast At Tiffany's (1961) DVD5

1 | 1

4.36 ГБ




Вы не можете начинать темы
Вы не можете отвечать на сообщения
Вы не можете редактировать свои сообщения
Вы не можете удалять свои сообщения
Вы не можете добавлять вложения

Перейти:  
Для Мосгорсуда, Роскомнадзора и рекламодателей: mosgorsud-torrent[собачка]yandex.ru
 Вход
ppkBB3cker v.2 © 2008-2014 @ PPK
[ Time : 0.529s | 13 Queries | GZIP : Off ]

Торрент трекер RUTOR.IN, Не можете зайти на rutor.org? Какой новый адрес рутор? Какое зеркало рутор? Не работает rutor.org и зеркала? Тогда наш торрент специально для вас. Rutor.in неофициальное зеркало rutor. В случае если у Вас заблокирован rutor или вдруг Вы не можете на него зайти, то Вы без труда сможете скачать бесплатно и без рекламы последние новинки кино, игр, сериалов и прочего у нас, на Rutor.in. Не нужно использовать прокси, чтобы зайти на рутор, достаточно воспользоваться нашим ресурсом. Все новые фильмы, игры, сериалы, книги и музыка за 2013 и 2014 годы через торрент бесплатно. Скачивайте фильмы в хорошем качестве, игры для пк, xbox, playstation без регистрации. У нас вы найдете новые Зарубежные сериалы и Русские сериалы 2013, 2014, 2015 годов. Оставайтесь с нами, качайте любимые фильмы, игры, сериалы, книги и музыку.