img image001 image001 image001 image001 image001 image001 image001 image001 image001 image001 image001 image001 image001 image001 image001

Planets Sun Sun Sun
Статистика раздачи
Автор: PriZraK | Размер: 2.88 ГБ | Добавлен: 11 авг 2016
Раздают: 174    Качают: 47
Скачать торрент
Скачать торрент
Описание торрента

СообщениеДобавлено: 11 авг 2016 


Информация о фильме
Название: Охотники за нацистами [01-04 из 04]
Год выхода: 2007
Жанр: Документальный
Режиссер: Ф.Стуков
О фильме:
В январе 1942 года правительства всех оккупированных стран Европы подписали декларацию о наказании за преступления, совершаемые во время войны.
После окончания Второй мировой казалось, что ни одному палачу не уйти от возмездия. Но уже через четыре года холодная война положила конец сотрудничеству СССР, стран западной Европы и США в розыске военных преступников.
В Северной и Южной Америках бывшие нацисты нашли не только убежище, но работу, став военными специалистами, учеными, шпионами.
Многие палачи начали новую, относительно спокойную жизнь. Относительно, потому что их покой нарушали те, кто сделал охоту за нацистами своей профессией.
Почти всегда они действовали в одиночку, подчас наперекор политике своих стран, рискуя собственной свободой, а то и жизнью. Охотники за нацистами – герои этого фильма.
Один из них - Тувия Фридман, для которого поиск военных преступников стал личной местью за гибель родных в концлагерях и гетто.
История деятельности Фридмана тесно связана с всемирно известной операцией «Моссад» по поимке Эйхманна. Однажды после долгих безрезультатных поисков охотник за нацистами получил письмо из Аргентины. Тамошний еврей по имени Лотар Герман сообщал, что Эйхманн находится вовсе не в Кувейте, это его сосед…
Доп. информация:
Запись потока *.ts с наземного цифрового телеканала "Беларусь 3"
Благодарность: за помощь с недостающим материалом Bartimeyse и PavelDAS. Обоим большое спасибо!
Страна: Российская Федерация
Продолжительность: 4 серии по 38 мин
Перевод: не требует
Файл
Кодек: AVC (H264)
Качество: DVB
Видео: MPEG4 Video (H264) 720(785)x576 (49:36) 25fps, 2 268 Kbps
Звук: MPEG Audio 48000Hz stereo 256kbps
Семпл
Код:
General
ID                             : 1 (0x1)
Complete name                  : D:Новая  земля 20001Охотники за нацистами (2007)Охотники за нацистами_01_(2007).ts
Format                         : MPEG-TS
File size                      : 737 MiB
Duration                       : 38mn 47s
Overall bit rate mode          : Variable
Overall bit rate               : 2 658 Kbps
Video
ID                             : 801 (0x321)
Menu ID                        : 1 (0x1)
Format                         : AVC
Format/Info                    : Advanced Video Codec
Format profile                 : Main@L3.0
Format settings, CABAC         : Yes
Format settings, ReFrames      : 4 frames
Format settings, GOP           : M=4, N=24
Codec ID                       : 27
Duration                       : 38mn 47s
Bit rate                       : 2 268 Kbps
Width                          : 720 pixels
Height                         : 576 pixels
Display aspect ratio           : 4:3
Frame rate                     : 25.000 fps
Standard                       : PAL
Color space                    : YUV
Chroma subsampling             : 4:2:0
Bit depth                      : 8 bits
Scan type                      : MBAFF
Scan order                     : Top Field First
Bits/(Pixel*Frame)             : 0.219
Stream size                    : 629 MiB (85%)
Color primaries                : BT.601 PAL
Transfer characteristics       : BT.470 System B, BT.470 System G
Matrix coefficients            : BT.601
Color range                    : Limited
Audio
ID                             : 802 (0x322)
Menu ID                        : 1 (0x1)
Format                         : MPEG Audio
Format version                 : Version 1
Format profile                 : Layer 2
Codec ID                       : 3
Duration                       : 38mn 47s
Bit rate mode                  : Constant
Bit rate                       : 256 Kbps
Channel(s)                     : 2 channels
Sampling rate                  : 48.0 KHz
Compression mode               : Lossy
Stream size                    : 71.0 MiB (10%)
Language                       : English
 




   Похожие торренты   Торрент   Размер 
В этой теме нет новых непрочитанных сообщений. Охотники за нацистами. Комендант концлагеря (2009) SATRip

6 | 6

500.29 МБ

В этой теме нет новых непрочитанных сообщений. Охотники за нацистами / Nazi Hunters [01x01-13] (2009) TVRip

37 | 8

6.4 ГБ

В этой теме нет новых непрочитанных сообщений. Славянский базар 2007. Антология (2007) DVB от AND03AND

1 | 3

1012.52 МБ

В этой теме нет новых непрочитанных сообщений. Тропой волка (2007) DVB от AND03AND

76 | 4

660.98 МБ

В этой теме нет новых непрочитанных сообщений. Генералы [01-07 из 07] (2006-2007) DVB от AND03AND

34 | 2

5.1 ГБ

В этой теме нет новых непрочитанных сообщений. Спектакль - Чудаки (2007) DVB от AND03AND

23 | 23

3.4 ГБ

В этой теме нет новых непрочитанных сообщений. Брестская крепость (2007) DVB от AND03AND

19 | 3

782.64 МБ




Вы не можете начинать темы
Вы не можете отвечать на сообщения
Вы не можете редактировать свои сообщения
Вы не можете удалять свои сообщения
Вы не можете добавлять вложения

Перейти:  
Для Мосгорсуда, Роскомнадзора и рекламодателей: mosgorsud-torrent[собачка]yandex.ru
 Вход
ppkBB3cker v.2 © 2008-2014 @ PPK
[ Time : 0.047s | 15 Queries | GZIP : Off ]

Торрент трекер RUTOR.IN, Не можете зайти на rutor.org? Какой новый адрес рутор? Какое зеркало рутор? Не работает rutor.org и зеркала? Тогда наш торрент специально для вас. Rutor.in неофициальное зеркало rutor. В случае если у Вас заблокирован rutor или вдруг Вы не можете на него зайти, то Вы без труда сможете скачать бесплатно и без рекламы последние новинки кино, игр, сериалов и прочего у нас, на Rutor.in. Не нужно использовать прокси, чтобы зайти на рутор, достаточно воспользоваться нашим ресурсом. Все новые фильмы, игры, сериалы, книги и музыка за 2013 и 2014 годы через торрент бесплатно. Скачивайте фильмы в хорошем качестве, игры для пк, xbox, playstation без регистрации. У нас вы найдете новые Зарубежные сериалы и Русские сериалы 2013, 2014, 2015 годов. Оставайтесь с нами, качайте любимые фильмы, игры, сериалы, книги и музыку.