img image001 image001 image001 image001 image001 image001 image001 image001 image001 image001 image001 image001 image001 image001 image001

Planets Sun Sun Sun
Статистика раздачи
Автор: PriZraK | Размер: 740.4 МБ | Добавлен: 13 авг 2016
Раздают: 93    Качают: 18
Скачать торрент
Скачать торрент
Описание торрента

СообщениеДобавлено: 13 авг 2016 


Информация о фильме
Название: Дневник адмирала Головко
Год выхода: 2008
Жанр: Документальный
Режиссер: Ирина Морозова
О фильме:
Он был один из немногих, кто ослушался Сталина и ударил по немецким самолетам-разведчикам за 6 дней до начала войны, и если бы Гитлер не напал на СССР, Головко был бы расстрелян. В годы репрессий страх перед органами НКВД был огромен, но Головко, не испугавшись Берии, освободил заключенных, дал им оружие и послал на передовую. Он стал командующим северным флотом в 34 года, и когда началась война, не позволил врагу уничтожить вверенный ему флот, сделал всё, чтобы не пустить войска Вермахта на Кольский полуостров. 85 раз он вручал Золотую Звезду Героя Советского Союза краснофлотцам и офицерам, а сам так и не был удостоен этого высокого звания... даже посмертно.
В основу фильма положены военные дневники и воспоминания адмирала А.Г. Головко, который командовал Северным флотом с 1940 по 1946 гг.
Доп. информация:
Запись потока *.ts с наземного цифрового телеканала "Беларусь 3"
Благодарность: за помощь с недостающим материалом Bartimeyse и PavelDAS. Обоим большое спасибо!
Страна: Российская Федерация
Студия: Фарватер-фильм
Продолжительность: 00:38:59
Перевод: Не требуется
Файл
Кодек: AVC (H264)
Качество: DVB
Видео: MPEG4 Video (H264) 720(785)x576 (49:36) 25fps, 2 265 Kbps
Звук: MPEG Audio 48000Hz stereo 256kbps
Семпл
Код:
General
ID                             : 1 (0x1)
Complete name                  : D:Новая  земля 2\00001Дневник адмирала Головко (2006)Дневник адмирала Головко (2006).ts
Format                         : MPEG-TS
File size                      : 740 MiB
Duration                       : 38mn 59s
Overall bit rate mode          : Variable
Overall bit rate               : 2 655 Kbps
Video
ID                             : 801 (0x321)
Menu ID                        : 1 (0x1)
Format                         : AVC
Format/Info                    : Advanced Video Codec
Format profile                 : Main@L3.0
Format settings, CABAC         : Yes
Format settings, ReFrames      : 4 frames
Format settings, GOP           : M=4, N=24
Codec ID                       : 27
Duration                       : 38mn 59s
Bit rate                       : 2 265 Kbps
Width                          : 720 pixels
Height                         : 576 pixels
Display aspect ratio           : 4:3
Frame rate                     : 25.000 fps
Standard                       : PAL
Color space                    : YUV
Chroma subsampling             : 4:2:0
Bit depth                      : 8 bits
Scan type                      : MBAFF
Scan order                     : Top Field First
Bits/(Pixel*Frame)             : 0.218
Stream size                    : 632 MiB (85%)
Color primaries                : BT.601 PAL
Transfer characteristics       : BT.470 System B, BT.470 System G
Matrix coefficients            : BT.601
Color range                    : Limited
Audio
ID                             : 802 (0x322)
Menu ID                        : 1 (0x1)
Format                         : MPEG Audio
Format version                 : Version 1
Format profile                 : Layer 2
Codec ID                       : 3
Duration                       : 38mn 59s
Bit rate mode                  : Constant
Bit rate                       : 256 Kbps
Channel(s)                     : 2 channels
Sampling rate                  : 48.0 KHz
Compression mode               : Lossy
Stream size                    : 71.4 MiB (10%)
Language                       : English
 




   Похожие торренты   Торрент   Размер 
В этой теме нет новых непрочитанных сообщений. Дневник адмирала Головко (2008) SATRip от Dizell

2 | 2

490.02 МБ

В этой теме нет новых непрочитанных сообщений. Авторский концерт Валерия Головко (Larry Golovko) - Победа (2015) DVB-AVC от AND03AND

15 | 6

970.07 МБ

В этой теме нет новых непрочитанных сообщений. Сентябрь 1943. Недетский дневник (2013) DVB от AND03AND

76 | 9

599.29 МБ

В этой теме нет новых непрочитанных сообщений. Александр Головко ( Aleksandr 54 ) - Сборник (2016) MP3

28 | 2

348.26 МБ

В этой теме нет новых непрочитанных сообщений. Славянский Базар 2008. Беспокойное сердце - Юбилейный вечер Игоря Лученка (2008) DVB от AND03AND

10 | 1

1.42 ГБ

В этой теме нет новых непрочитанных сообщений. Славянский базар 2008. Антология (2008) DVB от AND03AND

1 | 1

996.52 МБ

В этой теме нет новых непрочитанных сообщений. С. Балакин, В. Заблоцкий - Советские авианосцы. Авианесущие крейсера адмирала Горшкова (2007) PDF

6 | 0

288.94 МБ




Вы не можете начинать темы
Вы не можете отвечать на сообщения
Вы не можете редактировать свои сообщения
Вы не можете удалять свои сообщения
Вы не можете добавлять вложения

Перейти:  
Для Мосгорсуда, Роскомнадзора и рекламодателей: mosgorsud-torrent[собачка]yandex.ru
 Вход
ppkBB3cker v.2 © 2008-2014 @ PPK
[ Time : 0.058s | 15 Queries | GZIP : Off ]

Торрент трекер RUTOR.IN, Не можете зайти на rutor.org? Какой новый адрес рутор? Какое зеркало рутор? Не работает rutor.org и зеркала? Тогда наш торрент специально для вас. Rutor.in неофициальное зеркало rutor. В случае если у Вас заблокирован rutor или вдруг Вы не можете на него зайти, то Вы без труда сможете скачать бесплатно и без рекламы последние новинки кино, игр, сериалов и прочего у нас, на Rutor.in. Не нужно использовать прокси, чтобы зайти на рутор, достаточно воспользоваться нашим ресурсом. Все новые фильмы, игры, сериалы, книги и музыка за 2013 и 2014 годы через торрент бесплатно. Скачивайте фильмы в хорошем качестве, игры для пк, xbox, playstation без регистрации. У нас вы найдете новые Зарубежные сериалы и Русские сериалы 2013, 2014, 2015 годов. Оставайтесь с нами, качайте любимые фильмы, игры, сериалы, книги и музыку.
cron