img image001 image001 image001 image001 image001 image001 image001 image001 image001 image001 image001 image001 image001 image001 image001

Planets Sun Sun Sun
Статистика раздачи
Автор: PriZraK | Размер: 1.46 ГБ | Добавлен: 14 авг 2016
Раздают: 50    Качают: 15
Скачать торрент
Скачать торрент
Описание торрента

СообщениеДобавлено: 14 авг 2016 

Андрей Мерзликин. Не было бы счастья...


#77
Год выпуска: 2016
Страна: Россия | Первый Канал HD | ООО "Студия «Проект ТВ"
Жанр: Документальный
Продолжительность: 0:49:56
Автор сценария и режиссер: Александр Тяпов

Описание: Сегодня, в свои 43, Андрей Мерзликин успел сняться более чем в 70 фильмах. Его приглашают самые именитые режиссеры и продюсеры – Никита Михалков и Петр Буслов, Валерий Тодоровский и Федор Бондарчук, Николай Досталь. На съемочной площадке сериала "Ладога" с известным российским актером Андреем Мерзликиным произошло одно странное совпадение.

Автор рипа: lrn
Автор записи: Abakan2000
Сэмпл: sendfile

Тип релиза: HDTVRip 720p
Контейнер: MKV
Видео: 1280x720 (16:9), 25,000 fps, H264, ~4000 kbps avg, ~0.181 bit/pixel
Аудио: 48 kHz, AC3 Dolby Digital, 2/0 (L,R) ch, ~192.00 kbps avg

General
Unique ID : 170851588841108946121762345966799513629 (0x8088D1B0819E8696ABCE5AF8008D681D)
Complete name : E:uTorrent.TempTempAndrey.Merzlikin.Ne.Bilo.bi.Schastya.2016.HDTVRip.720p.x264-lrn.mkv
Format : Matroska
Format version : Version 4 / Version 2
File size : 1.46 GiB
Duration : 49 min
Overall bit rate : 4 193 kb/s
Movie name : Andrey.Merzlikin.Ne.Bilo.bi.Schastya.2016.HDTVRip.720p.x264-lrn
Encoded date : UTC 2010-02-22 21:41:31
Writing application : mkvmerge v5.9.0 ('On The Loose') built on Dec 9 2012 15:37:01
Writing library : libebml v1.3.0 + libmatroska v1.4.0
Video
ID : 1
Format : AVC
Format/Info : Advanced Video Codec
Format profile : High@L4.1
Format settings, CABAC : Yes
Format settings, ReFrames : 8 frames
Codec ID : V_MPEG4/ISO/AVC
Duration : 49 min
Bit rate : 4 000 kb/s
Width : 1 280 pixels
Height : 720 pixels
Display aspect ratio : 16:9
Frame rate mode : Constant
Frame rate : 25.000 FPS
Color space : YUV
Chroma subsampling : 4:2:0
Bit depth : 8 bits
Scan type : Progressive
Bits/(Pixel*Frame) : 0.174
Stream size : 1.37 GiB (93%)
Writing library : x264 core 148 r2638 7599210
Encoding settings : cabac=1 / ref=8 / deblock=1:-3:-3 / analyse=0x3:0x133 / me=umh / subme=9 / psy=1 / psy_rd=1.00:0.00 / mixed_ref=1 / me_range=32 / chroma_me=1 / trellis=2 / 8x8dct=1 / cqm=0 / deadzone=21,11 / fast_pskip=1 / chroma_qp_offset=-2 / threads=12 / lookahead_threads=2 / sliced_threads=0 / nr=0 / decimate=1 / interlaced=0 / bluray_compat=0 / constrained_intra=0 / bframes=8 / b_pyramid=2 / b_adapt=2 / b_bias=0 / direct=3 / weightb=1 / open_gop=0 / weightp=2 / keyint=250 / keyint_min=25 / scenecut=40 / intra_refresh=0 / rc_lookahead=50 / rc=2pass / mbtree=1 / bitrate=4000 / ratetol=1.0 / qcomp=0.60 / qpmin=0 / qpmax=69 / qpstep=4 / cplxblur=20.0 / qblur=0.5 / vbv_maxrate=62500 / vbv_bufsize=78125 / nal_hrd=none / filler=0 / ip_ratio=1.40 / aq=1:1.00
Default : Yes
Forced : No
Statistics Tags Issue : mkvmerge v8.5.2 ('Crosses') 32bit 2016-08-13 08:59:31 / mkvmerge v5.9.0 ('On The Loose') built on Dec 9 2012 15:37:01 2010-02-22 21:41:31
FromStats_BitRate : 3999626
FromStats_Duration : 00:49:56.640000000
FromStats_FrameCount : 74916
FromStats_StreamSize : 1498180027
Audio
ID : 2
Format : AC-3
Format/Info : Audio Coding 3
Mode extension : CM (complete main)
Format settings, Endianness : Big
Codec ID : A_AC3
Duration : 49 min
Bit rate mode : Constant
Bit rate : 192 kb/s
Channel(s) : 2 channels
Channel positions : Front: L R
Sampling rate : 48.0 kHz
Frame rate : 31.250 FPS (1536 spf)
Compression mode : Lossy
Stream size : 68.6 MiB (5%)
Language : Russian
Default : Yes
Forced : No
raw [info]: 1280x720p 1:1 @ 25/1 fps (cfr)
x264 [info]: using SAR=1/1
x264 [info]: using cpu capabilities: MMX2 SSE2Fast SSSE3 SSE4.2 AVX
x264 [info]: profile High, level 4.1
x264 [info]: frame I:568 Avg QP:12.00 size: 97481
x264 [info]: frame P:20752 Avg QP:15.13 size: 40895
x264 [info]: frame B:53596 Avg QP:18.05 size: 11086
x264 [info]: consecutive B-frames: 4.0% 5.9% 11.6% 51.1% 10.5% 15.1% 1.2% 0.4% 0.1%
x264 [info]: mb I I16..4: 11.1% 69.8% 19.1%
x264 [info]: mb P I16..4: 4.0% 18.2% 2.4% P16..4: 33.7% 20.1% 11.5% 0.6% 0.2% skip: 9.3%
x264 [info]: mb B I16..4: 0.6% 1.9% 0.2% B16..8: 33.7% 10.9% 2.5% direct: 7.7% skip:42.5% L0:41.0% L1:44.9% BI:14.2%
x264 [info]: 8x8 transform intra:72.5% inter:57.5%
x264 [info]: direct mvs spatial:99.4% temporal:0.6%
x264 [info]: coded y,uvDC,uvAC intra: 65.4% 73.5% 52.0% inter: 21.8% 27.4% 4.3%
x264 [info]: i16 v,h,dc,p: 41% 20% 5% 34%
x264 [info]: i8 v,h,dc,ddl,ddr,vr,hd,vl,hu: 20% 15% 13% 6% 8% 10% 9% 9% 9%
x264 [info]: i4 v,h,dc,ddl,ddr,vr,hd,vl,hu: 22% 15% 9% 6% 11% 12% 9% 8% 8%
x264 [info]: i8c dc,h,v,p: 42% 23% 23% 13%
x264 [info]: Weighted P-Frames: Y:2.9% UV:1.8%
x264 [info]: ref P L0: 58.5% 9.8% 16.2% 4.7% 3.8% 2.6% 2.4% 1.7% 0.3% 0.0%
x264 [info]: ref B L0: 84.3% 9.0% 3.1% 1.5% 1.1% 0.7% 0.4%
x264 [info]: ref B L1: 95.6% 4.4%
x264 [info]: kb/s:3999.63
encoded 74916 frames, 15.01 fps, 3999.62 kb/s



   Похожие торренты   Торрент   Размер 
В этой теме нет новых непрочитанных сообщений. Андрей Мерзликин. Не было бы счастья... (2016) HDTVRip-AVC

62 | 10

604.94 МБ

В этой теме нет новых непрочитанных сообщений. Кузнец моего счастья (2016) HDTVRip от Files-x

114 | 9

1.43 ГБ

В этой теме нет новых непрочитанных сообщений. Кузнец моего счастья (2016) HDTVRip от Files-x

509 | 17

1.37 ГБ

В этой теме нет новых непрочитанных сообщений. Кузнец моего счастья (2016) HDTVRip от GeneralFilm

88 | 12

745.06 МБ

В этой теме нет новых непрочитанных сообщений. Не было бы счастья 2 [01 из 02] (2014) HDTVRip 720p от MediaClub

24 | 10

3.69 ГБ

В этой теме нет новых непрочитанных сообщений. Иллюзия счастья [01-02 из 02] (2013) HDTVRip 720p от Generalfilm

8 | 3

7.39 ГБ

В этой теме нет новых непрочитанных сообщений. Не было бы счастья 2 [01-02 из 02] (2014) HDTVRip 720p от MediaClub

29 | 11

7.39 ГБ




Вы не можете начинать темы
Вы не можете отвечать на сообщения
Вы не можете редактировать свои сообщения
Вы не можете удалять свои сообщения
Вы не можете добавлять вложения

Перейти:  
Для Мосгорсуда, Роскомнадзора и рекламодателей: mosgorsud-torrent[собачка]yandex.ru
 Вход
ppkBB3cker v.2 © 2008-2014 @ PPK
[ Time : 0.040s | 16 Queries | GZIP : Off ]

Торрент трекер RUTOR.IN, Не можете зайти на rutor.org? Какой новый адрес рутор? Какое зеркало рутор? Не работает rutor.org и зеркала? Тогда наш торрент специально для вас. Rutor.in неофициальное зеркало rutor. В случае если у Вас заблокирован rutor или вдруг Вы не можете на него зайти, то Вы без труда сможете скачать бесплатно и без рекламы последние новинки кино, игр, сериалов и прочего у нас, на Rutor.in. Не нужно использовать прокси, чтобы зайти на рутор, достаточно воспользоваться нашим ресурсом. Все новые фильмы, игры, сериалы, книги и музыка за 2013 и 2014 годы через торрент бесплатно. Скачивайте фильмы в хорошем качестве, игры для пк, xbox, playstation без регистрации. У нас вы найдете новые Зарубежные сериалы и Русские сериалы 2013, 2014, 2015 годов. Оставайтесь с нами, качайте любимые фильмы, игры, сериалы, книги и музыку.
cron