img image001 image001 image001 image001 image001 image001 image001 image001 image001 image001 image001 image001 image001 image001 image001

Planets Sun Sun Sun
Статистика раздачи
Автор: PriZraK | Размер: 1.59 ГБ | Добавлен: 14 авг 2016
Раздают: 56    Качают: 9
Скачать торрент
Скачать торрент
Описание торрента

СообщениеДобавлено: 14 авг 2016 

Фидель Кастро. Куба - любовь моя!


#77
Год выпуска: 2016
Страна: Россия | Первый Канал HD | Красный квадрат
Жанр: Документальный
Продолжительность: 0:51:56
Автор сценария и режиссер: Гурам Кварацхелия

Описание: Голубь, севший на плечо Фиделя Кастро, в год, когда ему исполнилось 33. Многомиллионная толпа на митинге по случаю победы революции в 1959 году загудела. Почти библейская история - подтверждена документально. И даже если это был специально обученный почтовый голубь, это уже не имело значения. Людям нужен был тот, кому можно было верить и в кого можно было верить.

Автор рипа: lrn
Автор записи: Alexin29
Сэмпл: sendfile

Тип релиза: HDTVRip 720p
Контейнер: MKV
Видео: 1280x720 (16:9), 25,000 fps, H264, ~4000 kbps avg, ~0.181 bit/pixel
Аудио: 48 kHz, AC3 Dolby Digital, 3/2 (L,C,R,l,r) + LFE ch, ~384.00 kbps avg

General
Unique ID : 184757719057594880278052024709221446643 (0x8AFF0AD809998731A7CD5D628F47F3F3)
Complete name : E:uTorrent.TempTempFidel.Kastro.Kuba.Lubov.Moya.2016.HDTVRip.720p.x264-lrn.mkv
Format : Matroska
Format version : Version 4 / Version 2
File size : 1.59 GiB
Duration : 51 min
Overall bit rate : 4 385 kb/s
Movie name : Fidel.Kastro.Kuba.Lubov.Moya.2016.HDTVRip.720p.x264-lrn
Encoded date : UTC 2010-02-22 21:41:31
Writing application : mkvmerge v5.9.0 ('On The Loose') built on Dec 9 2012 15:37:01
Writing library : libebml v1.3.0 + libmatroska v1.4.0
Video
ID : 1
Format : AVC
Format/Info : Advanced Video Codec
Format profile : High@L4.1
Format settings, CABAC : Yes
Format settings, ReFrames : 8 frames
Codec ID : V_MPEG4/ISO/AVC
Duration : 51 min
Bit rate : 4 000 kb/s
Width : 1 280 pixels
Height : 720 pixels
Display aspect ratio : 16:9
Frame rate mode : Constant
Frame rate : 25.000 FPS
Color space : YUV
Chroma subsampling : 4:2:0
Bit depth : 8 bits
Scan type : Progressive
Bits/(Pixel*Frame) : 0.174
Stream size : 1.42 GiB (89%)
Writing library : x264 core 148 r2638 7599210
Encoding settings : cabac=1 / ref=8 / deblock=1:-3:-3 / analyse=0x3:0x133 / me=umh / subme=9 / psy=1 / psy_rd=1.00:0.00 / mixed_ref=1 / me_range=32 / chroma_me=1 / trellis=2 / 8x8dct=1 / cqm=0 / deadzone=21,11 / fast_pskip=1 / chroma_qp_offset=-2 / threads=12 / lookahead_threads=2 / sliced_threads=0 / nr=0 / decimate=1 / interlaced=0 / bluray_compat=0 / constrained_intra=0 / bframes=8 / b_pyramid=2 / b_adapt=2 / b_bias=0 / direct=3 / weightb=1 / open_gop=0 / weightp=2 / keyint=250 / keyint_min=25 / scenecut=40 / intra_refresh=0 / rc_lookahead=50 / rc=2pass / mbtree=1 / bitrate=4000 / ratetol=1.0 / qcomp=0.60 / qpmin=0 / qpmax=69 / qpstep=4 / cplxblur=20.0 / qblur=0.5 / vbv_maxrate=62500 / vbv_bufsize=78125 / nal_hrd=none / filler=0 / ip_ratio=1.40 / aq=1:1.00
Default : Yes
Forced : No
Statistics Tags Issue : mkvmerge v8.5.2 ('Crosses') 32bit 2016-08-13 18:42:02 / mkvmerge v5.9.0 ('On The Loose') built on Dec 9 2012 15:37:01 2010-02-22 21:41:31
FromStats_BitRate : 3999566
FromStats_Duration : 00:51:56.320000000
FromStats_FrameCount : 77908
FromStats_StreamSize : 1557990965
Audio
ID : 2
Format : AC-3
Format/Info : Audio Coding 3
Mode extension : CM (complete main)
Format settings, Endianness : Big
Codec ID : A_AC3
Duration : 51 min
Bit rate mode : Constant
Bit rate : 384 kb/s
Channel(s) : 6 channels
Channel positions : Front: L C R, Side: L R, LFE
Sampling rate : 48.0 kHz
Frame rate : 31.250 FPS (1536 spf)
Compression mode : Lossy
Stream size : 143 MiB (9%)
Language : Russian
Default : Yes
Forced : No
raw [info]: 1280x720p 1:1 @ 25/1 fps (cfr)
x264 [info]: using SAR=1/1
x264 [info]: using cpu capabilities: MMX2 SSE2Fast SSSE3 SSE4.2 AVX
x264 [info]: profile High, level 4.1
x264 [info]: frame I:563 Avg QP:16.87 size:105272
x264 [info]: frame P:21057 Avg QP:19.87 size: 38034
x264 [info]: frame B:56288 Avg QP:22.61 size: 12398
x264 [info]: consecutive B-frames: 3.1% 5.2% 7.3% 64.7% 9.2% 7.2% 1.0% 1.8% 0.7%
x264 [info]: mb I I16..4: 10.7% 68.3% 21.0%
x264 [info]: mb P I16..4: 3.9% 8.5% 2.7% P16..4: 42.1% 19.7% 12.8% 0.5% 0.1% skip: 9.7%
x264 [info]: mb B I16..4: 0.5% 0.7% 0.3% B16..8: 34.3% 9.7% 2.5% direct: 9.0% skip:43.0% L0:40.4% L1:42.4% BI:17.2%
x264 [info]: 8x8 transform intra:55.9% inter:70.3%
x264 [info]: direct mvs spatial:98.9% temporal:1.1%
x264 [info]: coded y,uvDC,uvAC intra: 70.4% 58.4% 25.6% inter: 28.7% 21.3% 1.2%
x264 [info]: i16 v,h,dc,p: 9% 77% 2% 12%
x264 [info]: i8 v,h,dc,ddl,ddr,vr,hd,vl,hu: 10% 33% 8% 6% 8% 8% 10% 8% 10%
x264 [info]: i4 v,h,dc,ddl,ddr,vr,hd,vl,hu: 4% 72% 2% 2% 4% 4% 5% 3% 5%
x264 [info]: i8c dc,h,v,p: 46% 28% 14% 12%
x264 [info]: Weighted P-Frames: Y:6.4% UV:1.3%
x264 [info]: ref P L0: 48.7% 12.3% 16.8% 6.2% 5.2% 3.8% 3.7% 2.6% 0.5% 0.0%
x264 [info]: ref B L0: 78.3% 11.2% 4.5% 2.4% 1.7% 1.2% 0.7%
x264 [info]: ref B L1: 95.6% 4.4%
x264 [info]: kb/s:3999.56
encoded 77908 frames, 14.00 fps, 3999.56 kb/s



   Похожие торренты   Торрент   Размер 
В этой теме нет новых непрочитанных сообщений. Фидель Кастро. Куба - любовь моя! (2016) HDTVRip-AVC

98 | 21

700.53 МБ

В этой теме нет новых непрочитанных сообщений. Фидель Кастро. Фаворит языческого бога (2008) DVB от AND03AND

4 | 0

1.46 ГБ

В этой теме нет новых непрочитанных сообщений. Фидель Кастро: потерянные плёнки / Fidel Castro: The Lost Tapes (Том Дженнингс) [2014, история, биография, SATRip]

3 | 0

630.79 МБ

В этой теме нет новых непрочитанных сообщений. Код доступа. Фидель Кастро (Эфир от 17.08.2017) (ТК Звезда) [2017, документальный,биография, SATRip]

0 | 0

459.3 МБ

В этой теме нет новых непрочитанных сообщений. Пусть говорят - Куба - любовь моя [эфир от 17.10] (2013) HDTVRip от MediaClub

0 | 1

774.7 МБ

В этой теме нет новых непрочитанных сообщений. Куба [01-02 из 24] (2016) HDTVRip 720p от MediaClub

0 | 0

6.75 ГБ

В этой теме нет новых непрочитанных сообщений. Куба [01-04 из 24] (2016) HDTVRip 720p от MediaClub

0 | 0

4.49 ГБ




Вы не можете начинать темы
Вы не можете отвечать на сообщения
Вы не можете редактировать свои сообщения
Вы не можете удалять свои сообщения
Вы не можете добавлять вложения

Перейти:  
Для Мосгорсуда, Роскомнадзора и рекламодателей: mosgorsud-torrent[собачка]yandex.ru
 Вход
ppkBB3cker v.2 © 2008-2014 @ PPK
[ Time : 0.048s | 16 Queries | GZIP : Off ]

cron