img image001 image001 image001 image001 image001 image001 image001 image001 image001 image001 image001 image001 image001 image001 image001

Planets Sun Sun Sun
Статистика раздачи
Автор: PriZraK | Размер: 700.53 МБ | Добавлен: 14 авг 2016
Раздают: 98    Качают: 21
Скачать торрент
Скачать торрент
Описание торрента

СообщениеДобавлено: 14 авг 2016 

Фидель Кастро. Куба - любовь моя!


#77
Год выпуска: 2016
Страна: Россия | Первый Канал HD | Красный квадрат
Жанр: Документальный
Продолжительность: 0:51:56
Автор сценария и режиссер: Гурам Кварацхелия

Описание: Голубь, севший на плечо Фиделя Кастро, в год, когда ему исполнилось 33. Многомиллионная толпа на митинге по случаю победы революции в 1959 году загудела. Почти библейская история - подтверждена документально. И даже если это был специально обученный почтовый голубь, это уже не имело значения. Людям нужен был тот, кому можно было верить и в кого можно было верить.

Автор рипа: lrn
Автор записи: Alexin29
Сэмпл: sendfile

Тип релиза: HDTVRip-AVC
Контейнер: MKV
Видео: 1024x576 (16:9), 25,000 fps, H264, ~1500 kbps avg, ~0.102 bit/pixel
Аудио: 48 kHz, AC3 Dolby Digital, 3/2 (L,C,R,l,r) + LFE ch, ~384.00 kbps avg

General
Unique ID : 236226190079837069962187865392809752376 (0xB1B782624AEB93B89413012ED7EBB738)
Complete name : E:uTorrent.TempTempFidel.Kastro.Kuba.Lubov.Moya.2016.HDTVRip-AVC.x264-lrn.mkv
Format : Matroska
Format version : Version 4 / Version 2
File size : 701 MiB
Duration : 51 min
Overall bit rate : 1 886 kb/s
Movie name : Fidel.Kastro.Kuba.Lubov.Moya.2016.HDTVRip-AVC.x264-lrn
Encoded date : UTC 2010-02-22 21:41:31
Writing application : mkvmerge v5.9.0 ('On The Loose') built on Dec 9 2012 15:37:01
Writing library : libebml v1.3.0 + libmatroska v1.4.0
Video
ID : 1
Format : AVC
Format/Info : Advanced Video Codec
Format profile : High@L4.1
Format settings, CABAC : Yes
Format settings, ReFrames : 8 frames
Codec ID : V_MPEG4/ISO/AVC
Duration : 51 min
Bit rate : 1 500 kb/s
Width : 1 024 pixels
Height : 576 pixels
Display aspect ratio : 16:9
Frame rate mode : Constant
Frame rate : 25.000 FPS
Color space : YUV
Chroma subsampling : 4:2:0
Bit depth : 8 bits
Scan type : Progressive
Bits/(Pixel*Frame) : 0.102
Stream size : 544 MiB (78%)
Writing library : x264 core 148 r2638 7599210
Encoding settings : cabac=1 / ref=8 / deblock=1:-3:-3 / analyse=0x3:0x133 / me=umh / subme=9 / psy=1 / psy_rd=1.00:0.00 / mixed_ref=1 / me_range=32 / chroma_me=1 / trellis=2 / 8x8dct=1 / cqm=0 / deadzone=21,11 / fast_pskip=1 / chroma_qp_offset=-2 / threads=12 / lookahead_threads=2 / sliced_threads=0 / nr=0 / decimate=1 / interlaced=0 / bluray_compat=0 / constrained_intra=0 / bframes=8 / b_pyramid=2 / b_adapt=2 / b_bias=0 / direct=3 / weightb=1 / open_gop=0 / weightp=2 / keyint=250 / keyint_min=25 / scenecut=40 / intra_refresh=0 / rc_lookahead=50 / rc=2pass / mbtree=1 / bitrate=1500 / ratetol=1.0 / qcomp=0.60 / qpmin=0 / qpmax=69 / qpstep=4 / cplxblur=20.0 / qblur=0.5 / vbv_maxrate=62500 / vbv_bufsize=78125 / nal_hrd=none / filler=0 / ip_ratio=1.40 / aq=1:1.00
Default : Yes
Forced : No
Statistics Tags Issue : mkvmerge v8.5.2 ('Crosses') 32bit 2016-08-13 19:56:38 / mkvmerge v5.9.0 ('On The Loose') built on Dec 9 2012 15:37:01 2010-02-22 21:41:31
FromStats_BitRate : 1499972
FromStats_Duration : 00:51:56.320000000
FromStats_FrameCount : 77908
FromStats_StreamSize : 584299237
Audio
ID : 2
Format : AC-3
Format/Info : Audio Coding 3
Mode extension : CM (complete main)
Format settings, Endianness : Big
Codec ID : A_AC3
Duration : 51 min
Bit rate mode : Constant
Bit rate : 384 kb/s
Channel(s) : 6 channels
Channel positions : Front: L C R, Side: L R, LFE
Sampling rate : 48.0 kHz
Frame rate : 31.250 FPS (1536 spf)
Compression mode : Lossy
Stream size : 143 MiB (20%)
Language : Russian
Default : Yes
Forced : No
raw [info]: 1024x576p 1:1 @ 25/1 fps (cfr)
x264 [info]: using SAR=1/1
x264 [info]: using cpu capabilities: MMX2 SSE2Fast SSSE3 SSE4.2 AVX
x264 [info]: profile High, level 4.1
x264 [info]: frame I:584 Avg QP:20.93 size: 53844
x264 [info]: frame P:20642 Avg QP:24.10 size: 14855
x264 [info]: frame B:56682 Avg QP:27.56 size: 4344
x264 [info]: consecutive B-frames: 2.9% 4.8% 7.4% 61.7% 10.6% 8.6% 1.2% 1.9% 0.8%
x264 [info]: mb I I16..4: 18.1% 63.3% 18.6%
x264 [info]: mb P I16..4: 4.3% 5.5% 1.2% P16..4: 42.5% 14.0% 10.9% 0.3% 0.1% skip:21.1%
x264 [info]: mb B I16..4: 0.4% 0.4% 0.1% B16..8: 33.0% 6.5% 1.6% direct: 4.7% skip:53.4% L0:41.6% L1:46.7% BI:11.8%
x264 [info]: 8x8 transform intra:51.6% inter:77.3%
x264 [info]: direct mvs spatial:96.5% temporal:3.5%
x264 [info]: coded y,uvDC,uvAC intra: 56.7% 46.0% 14.4% inter: 17.8% 11.1% 0.3%
x264 [info]: i16 v,h,dc,p: 7% 79% 2% 12%
x264 [info]: i8 v,h,dc,ddl,ddr,vr,hd,vl,hu: 10% 22% 8% 7% 10% 10% 13% 9% 12%
x264 [info]: i4 v,h,dc,ddl,ddr,vr,hd,vl,hu: 6% 57% 2% 4% 6% 6% 7% 5% 7%
x264 [info]: i8c dc,h,v,p: 49% 28% 13% 11%
x264 [info]: Weighted P-Frames: Y:7.5% UV:1.5%
x264 [info]: ref P L0: 48.3% 14.1% 16.0% 6.0% 5.0% 3.8% 3.7% 2.5% 0.5% 0.0%
x264 [info]: ref B L0: 79.0% 10.5% 4.6% 2.4% 1.7% 1.1% 0.7%
x264 [info]: ref B L1: 95.7% 4.3%
x264 [info]: kb/s:1499.97
encoded 77908 frames, 25.37 fps, 1499.97 kb/s



   Похожие торренты   Торрент   Размер 
В этой теме нет новых непрочитанных сообщений. Фидель Кастро. Куба - любовь моя! (2016) HDTVRip 720p

56 | 9

1.59 ГБ

В этой теме нет новых непрочитанных сообщений. Фидель Кастро. Фаворит языческого бога (2008) DVB от AND03AND

19 | 11

1.46 ГБ

В этой теме нет новых непрочитанных сообщений. Пусть говорят - Куба - любовь моя [эфир от 17.10] (2013) HDTVRip от MediaClub

0 | 1

774.7 МБ

В этой теме нет новых непрочитанных сообщений. Куба, любовь моя (2011) SATRip

0 | 2

422.37 МБ

В этой теме нет новых непрочитанных сообщений. Куба / Cuba (1979) HDTVRip | P2

129 | 24

1.46 ГБ

В этой теме нет новых непрочитанных сообщений. Кастро Э. - HTML и CSS для создания web-страниц (2006) PDF

26 | 4

51.42 МБ

В этой теме нет новых непрочитанных сообщений. Футбол. Футзал (мини-футбол). Чемпионат Мира 2016. 3-й тур. Группа B. Россия - Куба [17.09] (2016) HDTV 1080i

0 | 1

5.67 ГБ




Вы не можете начинать темы
Вы не можете отвечать на сообщения
Вы не можете редактировать свои сообщения
Вы не можете удалять свои сообщения
Вы не можете добавлять вложения

Перейти:  
Для Мосгорсуда, Роскомнадзора и рекламодателей: mosgorsud-torrent[собачка]yandex.ru
 Вход
ppkBB3cker v.2 © 2008-2014 @ PPK
[ Time : 0.029s | 15 Queries | GZIP : Off ]

Торрент трекер RUTOR.IN, Не можете зайти на rutor.org? Какой новый адрес рутор? Какое зеркало рутор? Не работает rutor.org и зеркала? Тогда наш торрент специально для вас. Rutor.in неофициальное зеркало rutor. В случае если у Вас заблокирован rutor или вдруг Вы не можете на него зайти, то Вы без труда сможете скачать бесплатно и без рекламы последние новинки кино, игр, сериалов и прочего у нас, на Rutor.in. Не нужно использовать прокси, чтобы зайти на рутор, достаточно воспользоваться нашим ресурсом. Все новые фильмы, игры, сериалы, книги и музыка за 2013 и 2014 годы через торрент бесплатно. Скачивайте фильмы в хорошем качестве, игры для пк, xbox, playstation без регистрации. У нас вы найдете новые Зарубежные сериалы и Русские сериалы 2013, 2014, 2015 годов. Оставайтесь с нами, качайте любимые фильмы, игры, сериалы, книги и музыку.