img image001 image001 image001 image001 image001 image001 image001 image001 image001 image001 image001 image001 image001 image001 image001

Planets Sun Sun Sun
Статистика раздачи
Автор: PriZraK | Размер: 366.86 МБ | Добавлен: 19 авг 2016
Раздают: 33    Качают: 6
Скачать торрент
Скачать торрент
Описание торрента

СообщениеДобавлено: 19 авг 2016 


Информация о фильме
Название: Прорыв
Год выхода: 2003
Жанр: Документальный
Режиссер: Князев Николай
О фильме:
Герои фильма – участники операции «Багратион», начавшейся прорывом немецкой обороны 23 июня 1944 года и закончившейся блестящей победой – освобождением Минска и Беларуси при огромных потерях противника.
Бывшие бойцы – старшина А.Головко, ефрейтор М.Иванушкина, командир партизанского отряда П.Гончаров сегодня уже пожилые люди. Однако события тех лет запечатлелись в их памяти с мельчайшими подробностями. До сих пор помнят они тот ужас, горе, страдания и страх, которые нес с собой каждый день войны.
Доп. информация:
Автор сценария: Князев Николай Петрович
Оператор-постановщик: Н.Сидорченко
Запись потока *.ts с наземного цифрового телеканала "Беларусь 3".
Благодарность: за помощь с недостающим материалом Bartimeyse и PavelDAS. Обоим большое спасибо!
Страна: Республика Беларусь
Студия: Беларусьфильм
Продолжительность: 00:19:19
Перевод: не требует
Файл
Кодек: AVC (H264)
Качество: DVB
Видео: MPEG4 Video (H264) 720(785)x576 (49:36) 25fps, 2 265 Kbps
Звук: MPEG Audio 48000Hz stereo 256kbps
Семпл
Код:
General
ID                             : 1 (0x1)
Complete name                  : D:Новая  земля 2\001 Документальный фильмыВОВ и другие войныПрорыв (2003)Прорыв (2003).ts
Format                         : MPEG-TS
File size                      : 367 MiB
Duration                       : 19mn 19s
Overall bit rate mode          : Variable
Overall bit rate               : 2 655 Kbps
Video
ID                             : 513 (0x201)
Menu ID                        : 1 (0x1)
Format                         : AVC
Format/Info                    : Advanced Video Codec
Format profile                 : Main@L3.0
Format settings, CABAC         : Yes
Format settings, ReFrames      : 4 frames
Codec ID                       : 27
Duration                       : 19mn 19s
Bit rate                       : 2 265 Kbps
Width                          : 720 pixels
Height                         : 576 pixels
Display aspect ratio           : 4:3
Frame rate                     : 25.000 fps
Standard                       : PAL
Color space                    : YUV
Chroma subsampling             : 4:2:0
Bit depth                      : 8 bits
Scan type                      : MBAFF
Scan order                     : Top Field First
Bits/(Pixel*Frame)             : 0.218
Stream size                    : 313 MiB (85%)
Color primaries                : BT.601 PAL
Transfer characteristics       : BT.470 System B, BT.470 System G
Matrix coefficients            : BT.601
Color range                    : Limited
Audio
ID                             : 514 (0x202)
Menu ID                        : 1 (0x1)
Format                         : MPEG Audio
Format version                 : Version 1
Format profile                 : Layer 2
Codec ID                       : 3
Duration                       : 19mn 19s
Bit rate mode                  : Constant
Bit rate                       : 256 Kbps
Channel(s)                     : 2 channels
Sampling rate                  : 48.0 KHz
Compression mode               : Lossy
Stream size                    : 35.4 MiB (10%)
Language                       : English




   Похожие торренты   Торрент   Размер 
В этой теме нет новых непрочитанных сообщений. Славянский Базар 2003. День культуры Беларуси. Звезда Мулявина / Зорка Мулявіна (2003) DVB от AND03AND

15 | 39

2.7 ГБ

В этой теме нет новых непрочитанных сообщений. Славянский базар 2003. Антология (2003) DVB от AND03AND

3 | 5

988.44 МБ

В этой теме нет новых непрочитанных сообщений. Имени Багратиона (2003) DVB от AND03AND

29 | 3

1.22 ГБ

В этой теме нет новых непрочитанных сообщений. Другое небо (2003) SATRip от AND03AND

30 | 4

315.34 МБ

В этой теме нет новых непрочитанных сообщений. Другое небо / Павел Сухой (2003) DVB от AND03AND

70 | 4

542.07 МБ

В этой теме нет новых непрочитанных сообщений. За полчаса до весны (Памяти В. Мулявина) (Песняры) (2003) SATRip от AND03AND

55 | 11

739.45 МБ

В этой теме нет новых непрочитанных сообщений. Звезда Анны Герман. Концерт Памяти - ГЦКЗ Россия (2003) DVB от AND03AND

18 | 3

1.44 ГБ




Вы не можете начинать темы
Вы не можете отвечать на сообщения
Вы не можете редактировать свои сообщения
Вы не можете удалять свои сообщения
Вы не можете добавлять вложения

Перейти:  
Для Мосгорсуда, Роскомнадзора и рекламодателей: mosgorsud-torrent[собачка]yandex.ru
 Вход
ppkBB3cker v.2 © 2008-2014 @ PPK
[ Time : 0.514s | 16 Queries | GZIP : Off ]

Торрент трекер RUTOR.IN, Не можете зайти на rutor.org? Какой новый адрес рутор? Какое зеркало рутор? Не работает rutor.org и зеркала? Тогда наш торрент специально для вас. Rutor.in неофициальное зеркало rutor. В случае если у Вас заблокирован rutor или вдруг Вы не можете на него зайти, то Вы без труда сможете скачать бесплатно и без рекламы последние новинки кино, игр, сериалов и прочего у нас, на Rutor.in. Не нужно использовать прокси, чтобы зайти на рутор, достаточно воспользоваться нашим ресурсом. Все новые фильмы, игры, сериалы, книги и музыка за 2013 и 2014 годы через торрент бесплатно. Скачивайте фильмы в хорошем качестве, игры для пк, xbox, playstation без регистрации. У нас вы найдете новые Зарубежные сериалы и Русские сериалы 2013, 2014, 2015 годов. Оставайтесь с нами, качайте любимые фильмы, игры, сериалы, книги и музыку.