img image001 image001 image001 image001 image001 image001 image001 image001 image001 image001 image001 image001 image001 image001 image001

Planets Sun Sun Sun
Статистика раздачи
Автор: PriZraK | Размер: 987.95 МБ | Добавлен: 21 авг 2016
Раздают: 32    Качают: 6
Скачать торрент
Скачать торрент
Описание торрента

СообщениеДобавлено: 21 авг 2016 



Информация о фильме
Название: Бумеранг / Без срока давности. Бумеранг-2
Год выхода: 2011, 2012
Жанр: Документальный
Режиссер: Алай А.И.
О фильме:
"Бумеранг" (2011)
История, которая будет отражена в фильме, началась в самом начале Великой Отечественной войны. В центре города казнили молодых подпольщиков, почти подростков. Имя юноши узнали спустя много лет, а вот имя девушки неизвестно. Казнь, как и полагается, снимали. Фотография впервые появилась в Нюрнберге на процессе над фашистскими преступниками, а через много лет – на выставке, которую организовал в Мюнхене немецкий публицист Ханс Хеер. Журналистка одной из ведущих немецких газет, придя на фотовыставку, узнала в офицере, осуществляющем казнь в июле 41-ого в Минске, своего отца. История фотографии, а к ней уже обращались документалисты тридцать лет назад, а также истории казненных молодых белорусских подпольщиков станут одним из сюжетов фильма. Вторая часть будет снята в Германии. Бригитта Мёллер, а именно так звали журналистку, справиться с осознанием того, что ее отец убивал, не смогла, она покончила жизнь самоубийством.
"Без срока давности. Бумеранг-2" (2012)
Фильм является продолжением картины «Бумеранг», в центре которой фотография казни молодых подпольщиков в оккупированном Минске 26 октября 1941 года. Авторам удалось установить личность немецкого офицера на снимке. Однако, до сих пор остается неизвестным имя второго офицера, непосредственно палача. Известно только, что исполнителями карательной акции были военнослужащие литовского полицейского батальона. Фильм-поиск последовательно ведет к установлению имени основного персонажа казни.
Доп. информация:
Автор сценария: Алай Анатолий Иванович
Операторы-постановщики: Милешкин Сергей Павлович, Казазаев Анатолий Васильевич
Запись потока *.ts с наземного цифрового телеканала "Беларусь 3".
Благодарность: за помощь с недостающим материалом Bartimeyse и PavelDAS. Обоим большое спасибо!
Подобные раздачи:
Охотники за нацистами
http://rutor.is/torrent/518235
Страна: Республика Беларусь
Студия: Беларусьфильм
Продолжительность: 00:26:14 + 00:26:30
Перевод: не требует
Файл
Кодек: AVC (H264)
Качество: DVB
Видео: MPEG4 Video (H264) 720(785)x576 (49:36) 25fps, 2 210 Kbps
Звук: MPEG Audio 48000Hz stereo 256kbps
Код:
General
ID                             : 1 (0x1)
Complete name                  : D:Новая  земля 201 Документальный фильмыВОВ и другие войныЕсть БумерангБумеранг (2011-2012)Без срока давности. Бумеранг-2 (2012).ts
Format                         : MPEG-TS
File size                      : 492 MiB
Duration                       : 26mn 30s
Overall bit rate mode          : Variable
Overall bit rate               : 2 597 Kbps
Video
ID                             : 801 (0x321)
Menu ID                        : 1 (0x1)
Format                         : AVC
Format/Info                    : Advanced Video Codec
Format profile                 : Main@L3.0
Format settings, CABAC         : Yes
Format settings, ReFrames      : 4 frames
Format settings, GOP           : M=4, N=24
Codec ID                       : 27
Duration                       : 26mn 30s
Bit rate                       : 2 210 Kbps
Width                          : 720 pixels
Height                         : 576 pixels
Display aspect ratio           : 4:3
Frame rate                     : 25.000 fps
Standard                       : PAL
Color space                    : YUV
Chroma subsampling             : 4:2:0
Bit depth                      : 8 bits
Scan type                      : MBAFF
Scan order                     : Top Field First
Bits/(Pixel*Frame)             : 0.213
Stream size                    : 419 MiB (85%)
Color primaries                : BT.601 PAL
Transfer characteristics       : BT.470 System B, BT.470 System G
Matrix coefficients            : BT.601
Color range                    : Limited
Audio
ID                             : 802 (0x322)
Menu ID                        : 1 (0x1)
Format                         : MPEG Audio
Format version                 : Version 1
Format profile                 : Layer 2
Codec ID                       : 3
Duration                       : 26mn 30s
Bit rate mode                  : Constant
Bit rate                       : 256 Kbps
Channel(s)                     : 2 channels
Sampling rate                  : 48.0 KHz
Compression mode               : Lossy
Stream size                    : 48.5 MiB (10%)
Language                       : English




   Похожие торренты   Торрент   Размер 
В этой теме нет новых непрочитанных сообщений. Без срока давности / Нераскрытые дела [01-08] (2012) SATRip от КинозалSAT

55 | 16

4.3 ГБ

В этой теме нет новых непрочитанных сообщений. Без срока давности / Нераскрытые дела [01-25 из 25] (2012) WEB-DLRip-AVC от ExKinoRay

12 | 8

18.33 ГБ

В этой теме нет новых непрочитанных сообщений. Без срока давности / Нераскрытые дела [01-25 из 25] (2012) WEB-DLRip 1080p

8 | 7

24.94 ГБ

В этой теме нет новых непрочитанных сообщений. Без срока давности / Нераскрытые дела [01-25 из 25] (2012) WEB-DLRip от РиперАМ

49 | 20

14.67 ГБ

В этой теме нет новых непрочитанных сообщений. Сердца бумеранг (2011) DVB

9 | 2

1.36 ГБ

В этой теме нет новых непрочитанных сообщений. Кравц - Бумеранг (2012) MP3 от AGR - Generalfilm

95 | 7

136.06 МБ

В этой теме нет новых непрочитанных сообщений. Сердца бумеранг (2011) SATRip от torrentfilm

14 | 3

1.37 ГБ




Вы не можете начинать темы
Вы не можете отвечать на сообщения
Вы не можете редактировать свои сообщения
Вы не можете удалять свои сообщения
Вы не можете добавлять вложения

Перейти:  
Для Мосгорсуда, Роскомнадзора и рекламодателей: mosgorsud-torrent[собачка]yandex.ru
 Вход
ppkBB3cker v.2 © 2008-2014 @ PPK
[ Time : 0.031s | 15 Queries | GZIP : Off ]

cron