img image001 image001 image001 image001 image001 image001 image001 image001 image001 image001 image001 image001 image001 image001 image001

Planets Sun Sun Sun
Статистика раздачи
Автор: PriZraK | Размер: 969.66 МБ | Добавлен: 02 сен 2016
Раздают: 8    Качают: 25
Скачать торрент
Скачать торрент
Описание торрента

СообщениеДобавлено: 02 сен 2016 


Информация о фильме
Название: Река жизни
Год выхода: 2009
Жанр: Документальный
Режиссер: Игорь Бышнёв
В ролях: Анатолий Викторович Бухаркин
О фильме:
Философско-поэтический рассказ о жизни человека и природе во все времена года, о Ее величестве реке, которая дает жизнь и сама является частью жизни человека.
У каждого из нас есть своя река. Неважно какая – Днепр или Нёман, Двина или Сож, Буг или Припять. Любая из них – неповторимое сокровище. Таким сокровищем стала река Березина для Анатолия Викторовича Бухаркина - самобытного художника из Березинского заповедника. Зрители услышат рассказ о его жизни, связанной с рекой и его размышления о красоте души человека, о необходимости единения человека и природы.
Фильм представлял Беларусь на Фестивале европейского кино 2010 года, как лучший фильм года.
Доп. информация: Запись потока *.ts с наземного цифрового телеканала "Беларусь 3".
Благодарность: за помощь с недостающим материалом Bartimeyse и PavelDAS. Обоим большое спасибо!
Страна: Республика Беларусь
Студия: Белорусский видеоцентр
Продолжительность: 00:51:06
Перевод: не требует
Файл
Кодек: AVC (H264)
Качество: DVB
Видео: MPEG4 Video (H264) 720(785)x576 (49:36) 25fps, 2 264 Kbps
Звук: MPEG Audio 48000Hz stereo 256kbps
Код:
General
ID                             : 1 (0x1)
Complete name                  : D:Новая  земля 2\001 Документальный фильмыПриродаРека жизни Есть старый вариантРека жизни (2009).ts
Format                         : MPEG-TS
File size                      : 970 MiB
Duration                       : 51mn 5s
Overall bit rate mode          : Variable
Overall bit rate               : 2 653 Kbps
Video
ID                             : 513 (0x201)
Menu ID                        : 1 (0x1)
Format                         : AVC
Format/Info                    : Advanced Video Codec
Format profile                 : Main@L3.0
Format settings, CABAC         : Yes
Format settings, ReFrames      : 4 frames
Format settings, GOP           : M=4, N=24
Codec ID                       : 27
Duration                       : 51mn 5s
Bit rate                       : 2 264 Kbps
Width                          : 720 pixels
Height                         : 576 pixels
Display aspect ratio           : 4:3
Frame rate                     : 25.000 fps
Standard                       : PAL
Color space                    : YUV
Chroma subsampling             : 4:2:0
Bit depth                      : 8 bits
Scan type                      : MBAFF
Scan order                     : Top Field First
Bits/(Pixel*Frame)             : 0.218
Stream size                    : 827 MiB (85%)
Color primaries                : BT.601 PAL
Transfer characteristics       : BT.470 System B, BT.470 System G
Matrix coefficients            : BT.601
Color range                    : Limited
Audio
ID                             : 514 (0x202)
Menu ID                        : 1 (0x1)
Format                         : MPEG Audio
Format version                 : Version 1
Format profile                 : Layer 2
Codec ID                       : 3
Duration                       : 51mn 5s
Bit rate mode                  : Constant
Bit rate                       : 256 Kbps
Channel(s)                     : 2 channels
Sampling rate                  : 48.0 KHz
Compression mode               : Lossy
Stream size                    : 93.6 MiB (10%)
Language                       : English




   Похожие торренты   Торрент   Размер 
В этой теме нет новых непрочитанных сообщений. Василий Корж. Уроки жизни (2009) SATRip от AND03AND

15 | 2

369.68 МБ

В этой теме нет новых непрочитанных сообщений. Купалье над Днепром. Александрия собирает друзей / Днепр — река дружбы (2014) SATRip от AND03AND

5 | 32

1.8 ГБ

В этой теме нет новых непрочитанных сообщений. Из жизни минских губернаторов (2010) DVB от AND03AND

11 | 4

626.87 МБ

В этой теме нет новых непрочитанных сообщений. Фритьоф Нансен. Нет жизни без борьбы (2011) DVB от AND03AND

1 | 0

458.1 МБ

В этой теме нет новых непрочитанных сообщений. Научный Институт Муди: Красная Река Жизни / Moody Institute of Science: Red River of Life (1957) VHSRip

0 | 2

433.28 МБ

В этой теме нет новых непрочитанных сообщений. Пять дней из жизни генерального конструктора (Герои Беларуси. Генеральный конструктор МАЗ - Михаил Высоцкий) (2006) DVB от AND03AND

27 | 6

676.57 МБ

В этой теме нет новых непрочитанных сообщений. Река Безумия / Дикая река / Rogue river (2012) DVDRip от Хixidok

2 | 3

804.68 МБ




Вы не можете начинать темы
Вы не можете отвечать на сообщения
Вы не можете редактировать свои сообщения
Вы не можете удалять свои сообщения
Вы не можете добавлять вложения

Перейти:  
Для Мосгорсуда, Роскомнадзора и рекламодателей: mosgorsud-torrent[собачка]yandex.ru
 Вход
ppkBB3cker v.2 © 2008-2014 @ PPK
[ Time : 0.016s | 15 Queries | GZIP : On ]

Торрент трекер RUTOR.IN, Не можете зайти на rutor.org? Какой новый адрес рутор? Какое зеркало рутор? Не работает rutor.org и зеркала? Тогда наш торрент специально для вас. Rutor.in неофициальное зеркало rutor. В случае если у Вас заблокирован rutor или вдруг Вы не можете на него зайти, то Вы без труда сможете скачать бесплатно и без рекламы последние новинки кино, игр, сериалов и прочего у нас, на Rutor.in. Не нужно использовать прокси, чтобы зайти на рутор, достаточно воспользоваться нашим ресурсом. Все новые фильмы, игры, сериалы, книги и музыка за 2013 и 2014 годы через торрент бесплатно. Скачивайте фильмы в хорошем качестве, игры для пк, xbox, playstation без регистрации. У нас вы найдете новые Зарубежные сериалы и Русские сериалы 2013, 2014, 2015 годов. Оставайтесь с нами, качайте любимые фильмы, игры, сериалы, книги и музыку.