img image001 image001 image001 image001 image001 image001 image001 image001 image001 image001 image001 image001 image001 image001 image001

Planets Sun Sun Sun
Статистика раздачи
Автор: PriZraK | Размер: 3.34 ГБ | Добавлен: 19 сен 2016
Раздают: 18    Качают: 1
Скачать торрент
Скачать торрент
Описание торрента

СообщениеДобавлено: 19 сен 2016 


Информация о фильме
Название: Вы не знаете Джека
Оригинальное название: You Don't Know Jack
Год выхода: 2010
Жанр: драма, биография
Режиссер: Барри Левинсон
В ролях: Аль Пачино, Дэнни Хьюстон, Сьюзен Сарандон, Джон Гудмен, Бренда Ваккаро, Джеймс Урбаняк, Рутанья Алда, Эрик Ланж, Делани Уильямс, Дирдри О`Коннелл
О фильме:
Фильм основан на реальных событиях. История о враче, поддерживающем идею легализации эвтаназии, и на деле помогавшем своим неизлечимо больным пациентам добровольно уйти из жизни
Идеи Кеворкяна были решительно осуждены врачебным сообществом и властями США. В 1991 Кеворкяна лишили лицензии на занятия медицинской практикой. Впоследствии он четырежды представал перед судом, однако был оправдан из-за недостаточности свидетельских показаний. В марте 1999 Джек Кеворкян был обвинён в убийстве второй степени, после того как осуществил эвтаназию 52-летнего Томаса Юка из округа Оуклэнд, страдавшего болезнью Лу Герига. В качестве неопровержимого доказательства стороны обвинения была представлена видеозапись совершения самого акта эвтаназии, которая, по воле самого Кеворкяна, находилась в свободном доступе. Решением суда Джек Кеворкян был приговорён к заключению сроком от 10 до 25 лет в исправительном учреждении штата Мичиган. 1 июня 2007 года, за хорошее поведение, решением Комиссии штата по условно-досрочному освобождению, 79-летний Джек Кеворкян был выпущен на свободу на два года раньше срока, с запретом помогать кому-либо умереть путём эвтаназии, осуществлять уход за лицами старше 62 лет и близко общаться с лицами, имеющими врождённые физические отклонения...

Страна: США
Студия: Bee Holder Productions, Cine Mosaic, HBO Films
Продолжительность: 02:08:56.960
Перевод: Профессиональный (многоголосый закадровый) Amedia
Файл
Кодек: h.264
Качество: HDTVRip 720p Исходник HDTV 1080i Amedia Premium HD
Видео: 1280x720 (16:9), 25.000 fps, AVC, ~3324 Kbps, 0.144 bits/pixel
Звук:
Русский, 48.0 KHz, MP2, 2 ch, 192 Kbps Amedia
Английский, 48.0 KHz, AC3, 2 ch, 192 Kbps
Субтитры: нет
frame I:1609 Avg QP:16.93 size:100897
frame P:43918 Avg QP:20.06 size: 33751
frame B:147897 Avg QP:22.01 size: 10614

Общее
Уникальный идентификатор : 204352636098520794462781782881835095978 (0x99BCE2D7F3A062E188687DC6FDFB17AA)
Полное имя : D:FILMSVy_ne_znaete_Dzheka.2010.HDTVRip720p.mkv
Формат : Matroska
Версия формата : Version 4 / Version 2
Размер файла : 3,34 Гбайт
Продолжительность : 2 ч. 8 м.
Общий поток : 3710 Кбит/сек
Дата кодирования : UTC 2016-09-11 15:58:43
Программа кодирования : mkvmerge v9.4.0 ('Knurl') 64bit
Библиотека кодирования : libebml v1.3.4 + libmatroska v1.4.5
Видео
Идентификатор : 1
Формат : AVC
Формат/Информация : Advanced Video Codec
Профиль формата : High@L4.1
Параметр CABAC формата : Да
Параметр ReFrames формата : 9 кадров
Идентификатор кодека : V_MPEG4/ISO/AVC
Продолжительность : 2 ч. 8 м.
Битрейт : 3324 Кбит/сек
Ширина : 1280 пикселей
Высота : 720 пикселей
Соотношение сторон : 16:9
Режим частоты кадров : Постоянный
Частота кадров : 25,000 кадров/сек
Цветовое пространство : YUV
Субдискретизация насыщенности : 4:2:0
Битовая глубина : 8 бит
Тип развёртки : Прогрессивная
Бит/(Пиксели*Кадры) : 0.144
Размер потока : 2,99 Гбайт (90%)
Библиотека кодирования : x264 core 148 r2638 7599210
Настройки программы : cabac=1 / ref=9 / deblock=1:-3:-3 / analyse=0x3:0x133 / me=umh / subme=11 / psy=1 / psy_rd=1.10:0.15 / mixed_ref=1 / me_range=48 / chroma_me=1 / trellis=2 / 8x8dct=1 / cqm=0 / deadzone=21,11 / fast_pskip=0 / chroma_qp_offset=-3 / threads=8 / lookahead_threads=2 / sliced_threads=0 / nr=0 / decimate=0 / interlaced=0 / bluray_compat=0 / constrained_intra=0 / bframes=10 / b_pyramid=2 / b_adapt=2 / b_bias=0 / direct=3 / weightb=1 / open_gop=0 / weightp=2 / keyint=250 / keyint_min=25 / scenecut=40 / intra_refresh=0 / rc_lookahead=60 / rc=2pass / mbtree=0 / bitrate=3324 / ratetol=1.0 / qcomp=0.60 / qpmin=0 / qpmax=69 / qpstep=4 / cplxblur=20.0 / qblur=0.5 / vbv_maxrate=40000 / vbv_bufsize=50000 / nal_hrd=none / filler=0 / ip_ratio=1.40 / pb_ratio=1.30 / aq=1:1.00
Default : Нет
Forced : Нет
Цветовой диапазон : Limited
Основные цвета : BT.709
Характеристики трансфера : BT.709
Коэффициенты матрицы : BT.709
Аудио #1
Идентификатор : 2
Формат : MPEG Audio
Версия формата : Version 1
Профиль формата : Layer 2
Идентификатор кодека : A_MPEG/L2
Идентификатор кодека/Подсказка : MP2
Продолжительность : 2 ч. 8 м.
Вид битрейта : Постоянный
Битрейт : 192 Кбит/сек
Каналы : 2 канала
Частота : 48,0 КГц
Частота кадров : 41,667 кадра/сек (1152 spf)
Метод сжатия : С потерями
Размер потока : 177 Мбайт (5%)
Язык : Russian
Default : Да
Forced : Нет
Аудио #2
Идентификатор : 3
Формат : AC-3
Формат/Информация : Audio Coding 3
Расширение режима : CM (complete main)
Параметр Endianness формата : Big
Идентификатор кодека : A_AC3
Продолжительность : 2 ч. 8 м.
Вид битрейта : Постоянный
Битрейт : 192 Кбит/сек
Каналы : 2 канала
Расположение каналов : Front: L R
Частота : 48,0 КГц
Частота кадров : 31,250 кадров/сек (1536 spf)
Метод сжатия : С потерями
Размер потока : 177 Мбайт (5%)
Язык : English
Default : Нет
Forced : Нет


Исходником послужила запись HDTV 1080i от Amedia Premiun HD, так как в записи Canal + (и рипов с него) наблюдаются тройка битых фреймов.

Релиз от: Temperest



   Похожие торренты   Торрент   Размер 
В этой теме нет новых непрочитанных сообщений. Вы не знаете Джека / You Don't Know Jack (2010) HDTVRip | P

384 | 56

1.45 ГБ

В этой теме нет новых непрочитанных сообщений. Ты не знаешь Джека / You Don't Know Jack (2010) HDTVRip

16 | 2

1.36 ГБ

В этой теме нет новых непрочитанных сообщений. Падение Джека / Jack Falls (2011) HDTVRip 720p от MediaClub | P2, L1

4 | 2

2.68 ГБ

В этой теме нет новых непрочитанных сообщений. Ты не знаешь Джека / You Don't Know Jack (2010) DVDRip

27 | 4

2.05 ГБ

В этой теме нет новых непрочитанных сообщений. Падение Джека / Jack Falls (2010) HDRip

1 | 2

1.45 ГБ

В этой теме нет новых непрочитанных сообщений. Ты не знаешь Джека / You Don't Know Jack (2010) HDTV 1080i

0 | 14

16.5 ГБ

В этой теме нет новых непрочитанных сообщений. Падение Джека / Jack Falls (2010) HDRip

2 | 1

745.03 МБ




Вы не можете начинать темы
Вы не можете отвечать на сообщения
Вы не можете редактировать свои сообщения
Вы не можете удалять свои сообщения
Вы не можете добавлять вложения

Перейти:  
Для Мосгорсуда, Роскомнадзора и рекламодателей: mosgorsud-torrent[собачка]yandex.ru
 Вход
ppkBB3cker v.2 © 2008-2014 @ PPK
[ Time : 0.066s | 14 Queries | GZIP : Off ]

Торрент трекер RUTOR.IN, Не можете зайти на rutor.org? Какой новый адрес рутор? Какое зеркало рутор? Не работает rutor.org и зеркала? Тогда наш торрент специально для вас. Rutor.in неофициальное зеркало rutor. В случае если у Вас заблокирован rutor или вдруг Вы не можете на него зайти, то Вы без труда сможете скачать бесплатно и без рекламы последние новинки кино, игр, сериалов и прочего у нас, на Rutor.in. Не нужно использовать прокси, чтобы зайти на рутор, достаточно воспользоваться нашим ресурсом. Все новые фильмы, игры, сериалы, книги и музыка за 2013 и 2014 годы через торрент бесплатно. Скачивайте фильмы в хорошем качестве, игры для пк, xbox, playstation без регистрации. У нас вы найдете новые Зарубежные сериалы и Русские сериалы 2013, 2014, 2015 годов. Оставайтесь с нами, качайте любимые фильмы, игры, сериалы, книги и музыку.