img image001 image001 image001 image001 image001 image001 image001 image001 image001 image001 image001 image001 image001 image001 image001

Planets Sun Sun Sun
Статистика раздачи
Автор: PriZraK | Размер: 1.37 ГБ | Добавлен: 19 сен 2016
Раздают: 29    Качают: 3
Скачать торрент
Скачать торрент
Описание торрента

СообщениеДобавлено: 19 сен 2016 


Дело копа-каннибала / Thought Crimes: The Case of the Cannibal Cop
Страна: США
Год выпуска: 2015
Жанр: документальный
Продолжительность: 01:21:14
Режиссер: Эрин Ли Карр
В ролях: Гари Аллен, Виолет Блу, Джеймс А. Коэн, Джозеф ДеМарко, Алан М. Дершовиц, Дэвид Гринфилд, Роберт Колкер, Крис Крафт
Описание: Документальный фильм об офицере полиции Нью-Йорка Жилберто Валле, который в марте 2013 года был обвинён в сговоре с целью похищения и поедания женщин. Это противоречивая история потенциально опасного молодого человека, получившего прозвище «коп-каннибал», и неожиданные последствия наших действий в сети...

Перевод: Профессиональный (многоголосый, закадровый)
Субтитры: нет

Качество: HDTVRip
Формат: AVI
Видео кодек: XviD
Аудио кодек: АС3
Видео: 720x400 (16:9), 29.970 fps, XviD ~1 925 kbps avg
Аудио №1: 48.0 kHz, AC3 Dolby Digital, 2/0 (L,R) ch, ~192 kbps | RUS
Аудио №2: 48.0 kHz, AC3 Dolby Digital, 2/0 (L,R) ch, ~192 kbps | ENG
Дата премьеры (мир): 20 апреля 2015
General
Полное имя : Delo.kopa.kannibala.2O15.P.HDTVRip.avi
Формат : AVI
Формат/Информация : Audio Video Interleave
Размер файла : 1,37 Гбайт
Продолжительность : 1 ч. 21 м.
Общий поток : 2416 Кбит/сек
Программа кодирования : VirtualDubMod 1.5.10.2 (build 2540/release)
Библиотека кодирования : VirtualDubMod build 2540/release
Видео
Идентификатор : 0
Формат : MPEG-4 Visual
Параметр BVOP формата : 2
Параметр QPel формата : Нет
Параметр GMC формата : Без точки перехода
Параметр матрицы формата : Default (MPEG)
Идентификатор кодека : XVID
Идентификатор кодека/Подсказка : XviD
Продолжительность : 1 ч. 21 м.
Битрейт : 1925 Кбит/сек
Ширина : 720 пикселей
Высота : 400 пикселей
Соотношение сторон : 16:9
Частота кадров : 29,970 (29970/1000) кадров/сек
Цветовое пространство : YUV
Субдискретизация насыщенности : 4:2:0
Битовая глубина : 8 бит
Тип развёртки : Прогрессивная
Метод сжатия : С потерями
Бит/(Пиксели*Кадры) : 0.223
Размер потока : 1,09 Гбайт (80%)
Библиотека кодирования : XviD 1.2.1 (UTC 2008-12-04)
Аудио #1
Идентификатор : 1
Формат : AC-3
Формат/Информация : Audio Coding 3
Расширение режима : CM (complete main)
Параметр Endianness формата : Big
Идентификатор кодека : 2000
Продолжительность : 1 ч. 21 м.
Вид битрейта : Постоянный
Битрейт : 192 Кбит/сек
Каналы : 2 канала
Расположение каналов : Front: L R
Частота : 48,0 КГц
Частота кадров : 31,250 кадров/сек (1536 spf)
Метод сжатия : С потерями
Размер потока : 112 Мбайт (8%)
Выравнивание : Разделение по промежуткам
Аудио #2
Идентификатор : 2
Формат : AC-3
Формат/Информация : Audio Coding 3
Расширение режима : CM (complete main)
Параметр Endianness формата : Big
Идентификатор кодека : 2000
Продолжительность : 1 ч. 21 м.
Вид битрейта : Постоянный
Битрейт : 192 Кбит/сек
Каналы : 2 канала
Расположение каналов : Front: L R
Частота : 48,0 КГц
Частота кадров : 31,250 кадров/сек (1536 spf)
Метод сжатия : С потерями
Размер потока : 112 Мбайт (8%)
Выравнивание : Разделение по промежуткам




   Похожие торренты   Торрент   Размер 
В этой теме нет новых непрочитанных сообщений. Дело №39 / Case 39 (2009) DVDRip

30 | 10

696.75 МБ

В этой теме нет новых непрочитанных сообщений. Дело №39 / Case 39 (2009) HDRip

35 | 12

744.42 МБ

В этой теме нет новых непрочитанных сообщений. Дело №39 / Case 39 (2009) Blu-ray CEE 1080p | D

15 | 20

36.43 ГБ

В этой теме нет новых непрочитанных сообщений. Дело №39 / Case 39 (2009) HDRip-AVC | Лицензия

228 | 11

1.45 ГБ

В этой теме нет новых непрочитанных сообщений. Дело №39 / Case 39 (2009) BDRip-AVC от potroks

114 | 18

2.18 ГБ

В этой теме нет новых непрочитанных сообщений. Дело №39 / Case 39 (2009) BDRip от HQ-VIDEO

28 | 9

2.18 ГБ

В этой теме нет новых непрочитанных сообщений. Дело в тебе / A Case of You (2013) HDRip | Р

1255 | 299

1.37 ГБ




Вы не можете начинать темы
Вы не можете отвечать на сообщения
Вы не можете редактировать свои сообщения
Вы не можете удалять свои сообщения
Вы не можете добавлять вложения

Перейти:  
Для Мосгорсуда, Роскомнадзора и рекламодателей: mosgorsud-torrent[собачка]yandex.ru
 Вход
ppkBB3cker v.2 © 2008-2014 @ PPK
[ Time : 0.137s | 14 Queries | GZIP : Off ]

Торрент трекер RUTOR.IN, Не можете зайти на rutor.org? Какой новый адрес рутор? Какое зеркало рутор? Не работает rutor.org и зеркала? Тогда наш торрент специально для вас. Rutor.in неофициальное зеркало rutor. В случае если у Вас заблокирован rutor или вдруг Вы не можете на него зайти, то Вы без труда сможете скачать бесплатно и без рекламы последние новинки кино, игр, сериалов и прочего у нас, на Rutor.in. Не нужно использовать прокси, чтобы зайти на рутор, достаточно воспользоваться нашим ресурсом. Все новые фильмы, игры, сериалы, книги и музыка за 2013 и 2014 годы через торрент бесплатно. Скачивайте фильмы в хорошем качестве, игры для пк, xbox, playstation без регистрации. У нас вы найдете новые Зарубежные сериалы и Русские сериалы 2013, 2014, 2015 годов. Оставайтесь с нами, качайте любимые фильмы, игры, сериалы, книги и музыку.