img image001 image001 image001 image001 image001 image001 image001 image001 image001 image001 image001 image001 image001 image001 image001

Planets Sun Sun Sun
Статистика раздачи
Автор: PriZraK | Размер: 7.5 ГБ | Добавлен: 19 сен 2016
Раздают: 24    Качают: 3
Скачать торрент
Скачать торрент
Описание торрента

СообщениеДобавлено: 19 сен 2016 


Наркокультура / Narco Cultura
Страна: США Мексика
Производство: Ocean Size Pictures, Parts and Labor
Год выпуска: 2013
Жанр: документальный, криминал
Продолжительность: 01:42:19
Режиссер: Шол Шварц
Продюсеры: Тодд Хагопиан, Ларс Кнудсен, Джей Ван Хой
Описание: Мексиканский пограничный город Сьюдад-Хуарес находится непосредственно рядом с техасским городом Эль-Пасо. С каждым годом всё больше и больше растёт число жизней, потерянных в результате беспощадных убийств наркокартелей. Наркодилеры в этих местах — это новые герои массовой культуры, причём по обе стороны границы...

Перевод: Любительский (одноголосый, закадровый) | Павел Морозов (aka PashaUP)
Субтитры: русские, английские, испанские

Качество: BDRip 1080p
Формат: МКV
Видео кодек: AVC
Аудио кодек: АС3
Видео: 1920x1080 (16:9), 23.976 fps, MPEG-4 AVC ~9 395 kbps avg
Аудио №1: 48.0 kHz, AC3 Dolby Digital, 3/2 (L,C,R,l,r) + LFE ch, ~448 kbps | RUS
Аудио №2: 48.0 kHz, AC3 Dolby Digital, 3/2 (L,C,R,l,r) + LFE ch, ~448 kbps | SPA
Формат субтитров: UTF-8 Plain Text
Дата премьеры (мир): 21 января 2013

Уникальный идентификатор : 206871913424002179322616383539693120242 (0x9BA214CE3723080DA9E561F340766AF2)
Полное имя : Narco.Cultura.2013.x264.BDRip.(1080p).mkv
Формат : Matroska
Версия формата : Version 4 / Version 2
Размер файла : 7,50 Гбайт
Продолжительность : 1 ч. 42 м.
Общий поток : 10,5 Мбит/сек
Название фильма : Narco Cultura (2013)
Дата кодирования : UTC 2014-08-11 10:41:01
Программа кодирования : mkvmerge v7.1.0 ('Good Love') 64bit built on Jul 27 2014 13:06:55
Библиотека кодирования : libebml v1.3.0 + libmatroska v1.4.1
DURATION : 01:37:39.812000000
NUMBER_OF_FRAMES : 264
NUMBER_OF_BYTES : 10553
_STATISTICS_WRITING_APP : mkvmerge v7.1.0 ('Good Love') 64bit built on Jul 27 2014 13:06:55
_STATISTICS_WRITING_DATE_UTC : 2014-08-11 10:41:01
_STATISTICS_TAGS : BPS DURATION NUMBER_OF_FRAMES NUMBER_OF_BYTES
Видео
Идентификатор : 1
Формат : AVC
Формат/Информация : Advanced Video Codec
Профиль формата : High@L4.1
Параметр CABAC формата : Да
Параметр ReFrames формата : 4 кадра
Идентификатор кодека : V_MPEG4/ISO/AVC
Продолжительность : 1 ч. 42 м.
Битрейт : 9395 Кбит/сек
Ширина : 1920 пикселей
Высота : 1080 пикселей
Соотношение сторон : 16:9
Режим частоты кадров : Постоянный
Частота кадров : 23,976 кадра/сек
Цветовое пространство : YUV
Субдискретизация насыщенности : 4:2:0
Битовая глубина : 8 бит
Тип развёртки : Прогрессивная
Бит/(Пиксели*Кадры) : 0.189
Размер потока : 6,71 Гбайт (89%)
Заголовок : Narco Cultura (2013)
Язык : Spanish
Default : Да
Forced : Нет
DURATION : 01:42:19.467000000
NUMBER_OF_FRAMES : 147200
NUMBER_OF_BYTES : 7368294565
_STATISTICS_WRITING_APP : mkvmerge v7.1.0 ('Good Love') 64bit built on Jul 27 2014 13:06:55
_STATISTICS_WRITING_DATE_UTC : 2014-08-11 10:41:01
_STATISTICS_TAGS : BPS DURATION NUMBER_OF_FRAMES NUMBER_OF_BYTES
Аудио #1
Идентификатор : 2
Формат : AC-3
Формат/Информация : Audio Coding 3
Расширение режима : CM (complete main)
Параметр Endianness формата : Big
Идентификатор кодека : A_AC3
Продолжительность : 1 ч. 42 м.
Вид битрейта : Постоянный
Битрейт : 448 Кбит/сек
Каналы : 6 каналов
Расположение каналов : Front: L C R, Side: L R, LFE
Частота : 48,0 КГц
Битовая глубина : 16 бит
Метод сжатия : С потерями
Размер потока : 328 Мбайт (4%)
Заголовок : AC3, 6 ch, 448 Kbps, PashaUP
Язык : Russian
Default : Да
Forced : Нет
Аудио #2
Идентификатор : 3
Формат : AC-3
Формат/Информация : Audio Coding 3
Расширение режима : CM (complete main)
Параметр Endianness формата : Big
Идентификатор кодека : A_AC3
Продолжительность : 1 ч. 42 м.
Вид битрейта : Постоянный
Битрейт : 448 Кбит/сек
Каналы : 6 каналов
Расположение каналов : Front: L C R, Side: L R, LFE
Частота : 48,0 КГц
Битовая глубина : 16 бит
Метод сжатия : С потерями
Размер потока : 328 Мбайт (4%)
Заголовок : AC3, 6 ch, 448 Kbps, Español
Язык : Spanish
Default : Нет
Forced : Нет
Текст #1
Идентификатор : 4
Формат : UTF-8
Идентификатор кодека : S_TEXT/UTF8
Идентификатор кодека/Информация : UTF-8 Plain Text
Заголовок : jasinpapa
Язык : Russian
Default : Нет
Forced : Нет
Текст #2
Идентификатор : 5
Формат : UTF-8
Идентификатор кодека : S_TEXT/UTF8
Идентификатор кодека/Информация : UTF-8 Plain Text
Язык : English
Default : Нет
Forced : Нет
Текст #3
Идентификатор : 6
Формат : UTF-8
Идентификатор кодека : S_TEXT/UTF8
Идентификатор кодека/Информация : UTF-8 Plain Text
Язык : Spanish
Default : Нет
Forced : Нет
Меню
00:00:00.000 : en:00:00:00.000
00:11:49.459 : en:00:11:49.459
00:20:10.418 : en:00:20:10.418
00:26:00.309 : en:00:26:00.309
00:32:15.350 : en:00:32:15.350
00:40:13.995 : en:00:40:13.995
00:55:53.350 : en:00:55:53.350
01:05:26.297 : en:01:05:26.297
01:14:31.008 : en:01:14:31.008
01:25:39.634 : en:01:25:39.634
01:33:45.912 : en:01:33:45.912
01:39:21.164 : en:01:39:21.164




   Похожие торренты   Торрент   Размер 
В этой теме нет новых непрочитанных сообщений. Наркокультура / Narco Cultura (2013) HDRip от ExKinoRay | L1

1247 | 71

1.46 ГБ

В этой теме нет новых непрочитанных сообщений. Наркокультура / Narco Cultura (2013) HDRip-AVC от ExKinoRay | L1

555 | 71

2.14 ГБ

В этой теме нет новых непрочитанных сообщений. Narco Terror (2013) PS3

6 | 3

1.19 ГБ

В этой теме нет новых непрочитанных сообщений. Narco Terror (2013) PC | Лицензия

189 | 8

1.09 ГБ

В этой теме нет новых непрочитанных сообщений. Narco Terror (2013) PC | Лицензия

4 | 2

1.42 ГБ

В этой теме нет новых непрочитанных сообщений. Narco Terror (2013) XBOX360

10 | 5

1.27 ГБ

В этой теме нет новых непрочитанных сообщений. Narco Terror (2013) PC | Repack от R.G. UPG

1 | 2

949.87 МБ




Вы не можете начинать темы
Вы не можете отвечать на сообщения
Вы не можете редактировать свои сообщения
Вы не можете удалять свои сообщения
Вы не можете добавлять вложения

Перейти:  
Для Мосгорсуда, Роскомнадзора и рекламодателей: mosgorsud-torrent[собачка]yandex.ru
 Вход
ppkBB3cker v.2 © 2008-2014 @ PPK
[ Time : 0.020s | 17 Queries | GZIP : Off ]

Торрент трекер RUTOR.IN, Не можете зайти на rutor.org? Какой новый адрес рутор? Какое зеркало рутор? Не работает rutor.org и зеркала? Тогда наш торрент специально для вас. Rutor.in неофициальное зеркало rutor. В случае если у Вас заблокирован rutor или вдруг Вы не можете на него зайти, то Вы без труда сможете скачать бесплатно и без рекламы последние новинки кино, игр, сериалов и прочего у нас, на Rutor.in. Не нужно использовать прокси, чтобы зайти на рутор, достаточно воспользоваться нашим ресурсом. Все новые фильмы, игры, сериалы, книги и музыка за 2013 и 2014 годы через торрент бесплатно. Скачивайте фильмы в хорошем качестве, игры для пк, xbox, playstation без регистрации. У нас вы найдете новые Зарубежные сериалы и Русские сериалы 2013, 2014, 2015 годов. Оставайтесь с нами, качайте любимые фильмы, игры, сериалы, книги и музыку.
cron