img image001 image001 image001 image001 image001 image001 image001 image001 image001 image001 image001 image001 image001 image001 image001

Planets Sun Sun Sun
Статистика раздачи
Автор: PriZraK | Размер: 762.87 МБ | Добавлен: 25 сен 2016
Раздают: 9    Качают: 5
Скачать торрент
Скачать торрент
Описание торрента

СообщениеДобавлено: 25 сен 2016 

Комиксы: Непобежденные / Comic Books: Unbound


#77
Год выпуска: 2014
Страна: США | Starz
Жанр: Документальный
Продолжительность: 0:56:33
Перевод: Профессиональный (двухголосый закадровый) | "NOVAMEDiA" по заказу "AMEDIA TV"
Режиссеры: Иван Канев / Ivan Kanev

Описание: Все в детстве читали комиксы. Это интересный жанр, который позволяет перенести малыша в мир супергероев и сказочных персонажей. С конца девяностых годов стало принято снимать фильмы по мотивам комиксов. В этих фильмах всем известные актёры предстают в виде персонажей из детских журналов, но сюжет при этом у многих из них совсем не детский.


Автор рипа: lrn
Автор записи: GeneralFilm
Сэмпл: sendfile

Тип релиза: HDTVRip-AVC
Контейнер: MKV
Видео: 1024x576 (16:9), 25,000 fps, H264, ~1500 kbps avg, ~0.102 bit/pixel
Аудио #1: 48 kHz, AC3 Dolby Digital, 2/0 (L,R) ch, ~192.00 kbps avg | студия "NOVAMEDiA"
Аудио #2: 48 kHz, AC3 Dolby Digital, 2/0 (L,R) ch, ~192.00 kbps avg | Оригинал

General
Unique ID : 204073950347925445950899320116867172151 (0x9987369341812025AB1CF99587730737)
Complete name : E:uTorrent.TempTempComic.Books.Unbound.2008.HDTVRip-AVC.x264-RUS-ENG-lrn.mkv
Format : Matroska
Format version : Version 4 / Version 2
File size : 763 MiB
Duration : 56 min
Overall bit rate : 1 886 kb/s
Movie name : Comic.Books.Unbound.2008.HDTVRip-AVC.x264-RUS-ENG-lrn
Encoded date : UTC 2010-02-22 21:41:31
Writing application : mkvmerge v5.9.0 ('On The Loose') built on Dec 9 2012 15:37:01
Writing library : libebml v1.3.0 + libmatroska v1.4.0
Video
ID : 1
Format : AVC
Format/Info : Advanced Video Codec
Format profile : High@L4.1
Format settings, CABAC : Yes
Format settings, ReFrames : 8 frames
Codec ID : V_MPEG4/ISO/AVC
Duration : 56 min
Bit rate : 1 500 kb/s
Width : 1 024 pixels
Height : 576 pixels
Display aspect ratio : 16:9
Frame rate mode : Constant
Frame rate : 25.000 FPS
Color space : YUV
Chroma subsampling : 4:2:0
Bit depth : 8 bits
Scan type : Progressive
Bits/(Pixel*Frame) : 0.102
Stream size : 592 MiB (78%)
Writing library : x264 core 142 r2479 dd79a61
Encoding settings : cabac=1 / ref=8 / deblock=1:-3:-3 / analyse=0x3:0x133 / me=umh / subme=9 / psy=1 / psy_rd=1.00:0.00 / mixed_ref=1 / me_range=32 / chroma_me=1 / trellis=2 / 8x8dct=1 / cqm=0 / deadzone=21,11 / fast_pskip=1 / chroma_qp_offset=-2 / threads=12 / lookahead_threads=2 / sliced_threads=0 / nr=0 / decimate=1 / interlaced=0 / bluray_compat=0 / constrained_intra=0 / bframes=8 / b_pyramid=2 / b_adapt=2 / b_bias=0 / direct=3 / weightb=1 / open_gop=0 / weightp=2 / keyint=250 / keyint_min=25 / scenecut=40 / intra_refresh=0 / rc_lookahead=50 / rc=2pass / mbtree=1 / bitrate=1500 / ratetol=1.0 / qcomp=0.60 / qpmin=0 / qpmax=69 / qpstep=4 / cplxblur=20.0 / qblur=0.5 / vbv_maxrate=62500 / vbv_bufsize=78125 / nal_hrd=none / filler=0 / ip_ratio=1.40 / aq=1:1.00
Default : Yes
Forced : No
Color range : Limited
Color primaries : BT.709
Transfer characteristics : BT.709
Matrix coefficients : BT.709
Audio #1
ID : 2
Format : AC-3
Format/Info : Audio Coding 3
Mode extension : CM (complete main)
Format settings, Endianness : Big
Codec ID : A_AC3
Duration : 56 min
Bit rate mode : Constant
Bit rate : 192 kb/s
Channel(s) : 2 channels
Channel positions : Front: L R
Sampling rate : 48.0 kHz
Frame rate : 31.250 FPS (1536 spf)
Compression mode : Lossy
Stream size : 77.7 MiB (10%)
Language : Russian
Default : Yes
Forced : Yes
Audio #2
ID : 3
Format : AC-3
Format/Info : Audio Coding 3
Mode extension : CM (complete main)
Format settings, Endianness : Big
Codec ID : A_AC3
Duration : 56 min
Bit rate mode : Constant
Bit rate : 192 kb/s
Channel(s) : 2 channels
Channel positions : Front: L R
Sampling rate : 48.0 kHz
Frame rate : 31.250 FPS (1536 spf)
Compression mode : Lossy
Stream size : 77.7 MiB (10%)
Language : English
Default : No
Forced : No
raw [info]: 1024x576p 1:1 @ 25/1 fps (cfr)
x264 [info]: using SAR=1/1
x264 [info]: using cpu capabilities: MMX2 SSE2Fast SSSE3 SSE4.2 AVX
x264 [info]: profile High, level 4.1
x264 [info]: frame I:712 Avg QP:16.05 size: 63092
x264 [info]: frame P:23165 Avg QP:19.01 size: 16681
x264 [info]: frame B:60956 Avg QP:22.41 size: 3361
x264 [info]: consecutive B-frames: 4.8% 5.4% 8.4% 49.5% 9.9% 16.6% 2.3% 2.5% 0.6%
x264 [info]: mb I I16..4: 7.4% 70.8% 21.8%
x264 [info]: mb P I16..4: 4.6% 15.4% 1.8% P16..4: 37.8% 13.0% 10.7% 0.3% 0.1% skip:16.3%
x264 [info]: mb B I16..4: 0.4% 1.4% 0.2% B16..8: 28.6% 4.9% 1.1% direct: 3.8% skip:59.6% L0:39.9% L1:48.5% BI:11.6%
x264 [info]: 8x8 transform intra:70.5% inter:66.5%
x264 [info]: direct mvs spatial:93.7% temporal:6.3%
x264 [info]: coded y,uvDC,uvAC intra: 59.5% 68.9% 32.5% inter: 12.7% 16.7% 1.9%
x264 [info]: i16 v,h,dc,p: 28% 29% 6% 37%
x264 [info]: i8 v,h,dc,ddl,ddr,vr,hd,vl,hu: 18% 17% 10% 6% 8% 10% 10% 10% 11%
x264 [info]: i4 v,h,dc,ddl,ddr,vr,hd,vl,hu: 20% 15% 6% 7% 12% 12% 11% 9% 9%
x264 [info]: i8c dc,h,v,p: 38% 28% 18% 15%
x264 [info]: Weighted P-Frames: Y:7.2% UV:4.5%
x264 [info]: ref P L0: 59.9% 10.3% 15.3% 4.5% 3.5% 2.6% 2.3% 1.5% 0.2% 0.0%
x264 [info]: ref B L0: 84.0% 9.1% 3.3% 1.5% 1.1% 0.7% 0.4%
x264 [info]: ref B L1: 95.4% 4.6%
x264 [info]: kb/s:1499.93
encoded 84835 frames, 29.14 fps, 1499.93 kb/s



   Похожие торренты   Торрент   Размер 
В этой теме нет новых непрочитанных сообщений. Комиксы: Непобежденные / Comic Books: Unbound (2008) HDTVRip 720p | P

19 | 6

1.73 ГБ

В этой теме нет новых непрочитанных сообщений. Комиксы: Непобежденные / Comic books: Unbound (2008) HDTVRip от Generalfilm

0 | 0

889.89 МБ

В этой теме нет новых непрочитанных сообщений. Комиксы: Непобежденные / Comic books: Unbound (2008) HDTV 1080i

0 | 0

2.94 ГБ

В этой теме нет новых непрочитанных сообщений. Хранители: Видеокомикс / Watchmen: The Complete Motion Comic [01-12] (2008) DVDRip | P1

23 | 5

4.35 ГБ

В этой теме нет новых непрочитанных сообщений. Комиксы - Том и Джерри (2008-2010) CBR

243 | 14

140.93 МБ

В этой теме нет новых непрочитанных сообщений. Комиксы DC - Титаны / DC Comics - Titans (2008) DJVU

13 | 8

43 МБ

В этой теме нет новых непрочитанных сообщений. Все комиксы о Симпсонах (The simpsons comics) (1993-2008) PDF

10 | 7

4.74 ГБ




Вы не можете начинать темы
Вы не можете отвечать на сообщения
Вы не можете редактировать свои сообщения
Вы не можете удалять свои сообщения
Вы не можете добавлять вложения

Перейти:  
Для Мосгорсуда, Роскомнадзора и рекламодателей: mosgorsud-torrent[собачка]yandex.ru
 Вход
ppkBB3cker v.2 © 2008-2014 @ PPK
[ Time : 0.640s | 15 Queries | GZIP : Off ]

Торрент трекер RUTOR.IN, Не можете зайти на rutor.org? Какой новый адрес рутор? Какое зеркало рутор? Не работает rutor.org и зеркала? Тогда наш торрент специально для вас. Rutor.in неофициальное зеркало rutor. В случае если у Вас заблокирован rutor или вдруг Вы не можете на него зайти, то Вы без труда сможете скачать бесплатно и без рекламы последние новинки кино, игр, сериалов и прочего у нас, на Rutor.in. Не нужно использовать прокси, чтобы зайти на рутор, достаточно воспользоваться нашим ресурсом. Все новые фильмы, игры, сериалы, книги и музыка за 2013 и 2014 годы через торрент бесплатно. Скачивайте фильмы в хорошем качестве, игры для пк, xbox, playstation без регистрации. У нас вы найдете новые Зарубежные сериалы и Русские сериалы 2013, 2014, 2015 годов. Оставайтесь с нами, качайте любимые фильмы, игры, сериалы, книги и музыку.