img image001 image001 image001 image001 image001 image001 image001 image001 image001 image001 image001 image001 image001 image001 image001

Planets Sun Sun Sun
Статистика раздачи
Автор: PriZraK | Размер: 730.33 МБ | Добавлен: 01 окт 2016
Раздают: 9    Качают: 7
Скачать торрент
Скачать торрент
Описание торрента

СообщениеДобавлено: 01 окт 2016 


Информация о фильме
Название: Возвращение
Год выхода: 2016
Жанр: Документальный
Режиссер: Сергей Катьер
О фильме:
24 сентября 2016 года в эфире телеканала "Беларусь 3" будет представлена большая премьера - хроникально-документальный фильм режиссера Сергея Катьера "Возвращение". По словам автора, зрители увидят фильм контрастов. Он о войне, но больше - о мире...
Неспокойное серо-черное небо времен Великой Отечественной - выступление юных хористов под светлыми небесами на Параде Победы. Фотокарточки печальных глаз пропавших без вести во время войны - горящий взор современной молодежи, жадно изучающей свои корни. Герои-защитники возвращаются на Родину, христиане - к кресту, сыновья - к матерям, пускай и посмертно... Но возвращение - это не шаг назад. Это большой шаг в будущее или даже в бессмертие.
"Возвращение" создается из самых разнообразных кусочков информации. Хроникальный материал, нарезки из выпусков новостей, личные фотографии, художественные зарисовки, множество локаций и мнений - все это напоминает большую энциклопедию из статей, которые должен прочесть каждый белорус, чтобы связь поколений не прерывалась никогда. Картина пропитана патриотизмом, она кажется многомерной и емкой одновременно. Наравне с персонажами киноленты полноправным действующим лицом выступает современный красивый и свободный Минск. Несмотря на трагичность, фильм кажется жизнеутверждающим: счастливые подростки, целеустремленные выпускники, юные, но уже мужественные защитники Отечества - вот лучшая надежда Беларуси на светлое будущее", - рассказывает Сергей Катьер.
Трогательный голос из детских уст вопрошает: "С чего начинается Родина?" - так разворачивается экспозиция фильма. Режиссер-документалист Сергей Катьер будто пытается ответить своим фильмом на этот взрослый вопрос. Именно поэтому он обращается к истории одного летчика-белоруса, чьи останки 72 года пролежали далеко от Родины.
Николай Пшенко - герой фильма и, в первую очередь, герой Родины. В последние минуты жизни старший сержант защищал солнечное небо Кубани: смертельно раненный, он направил истребитель на фашистскую зенитную батарею - так геройски и погиб. Его мать, несмотря на полученную трагическую весть, продолжала ждать возвращения сына. Может, именно поэтому и прожила 103 года...
Бесспорно, Николай Пшенко - символ своей эпохи, но документальная лента "Возвращение" основывается не только на этой истории. В общую канву фильма режиссер органично вписывает другие сюжетные линии, тесно переплетенные с подвигом соотечественника. Сергей Катьер мастерски знакомит зрителя с командой тех, кто пролил свет на историю Николая Пшенко.
В частности, он обращается к учителю истории, краеведу, директору историко-культурного комплекса Валерию Тухто, настоятелю церкви Всех Святых в Минске протоиерею Федору Повному, директору по развитию и продвижению историко-культурного комплекса "Линия Сталина" Михаилу Метле, художнику-портретисту Алексею Лещеву, родственникам и односельчанам Пшенко - словом, ко всем тем, кто принял непосредственное участие в его заслуженном возвращении.

Доп. информация: Запись потока *.ts с наземного цифрового телеканала "Беларусь 3".
Похожие раздачи:
Земля, на которой нам жить...(2001)
Солдаты памяти (2006)
Эхо далёкой войны (2008)
Батальон памяти (2015)
Пламя и пепел Первой Мировой. Крепость Осовец. Русские не сдаются. Сестры немилосердной войны
Обелиски. 8 фильмов [AVI]
Символ Победы (Документальный проект 9 из 9 фильмов)
Благодарность: за помощь с недостающим материалом Bartimeyse и PavelDAS. Обоим большое спасибо!
Страна: Республика Беларусь
Студия: Белтелерадиокомпания
Продолжительность: 00:39:00
Перевод: нет
Файл
Кодек: AVC (H264)
Качество: DVB
Видео: MPEG4 Video (H264) 720(785)x576 (49:36) 25fps, 2 230 kb/s
Звук: MPEG Audio 48000Hz stereo 256kbps
Семпл
Код:
General
ID                             : 1 (0x1)
Complete name                  : D:Новая  земля 2\001 Документальный фильмыВОВ и другие войныВозвращение (2016)Возвращение (2016).ts
Format                         : MPEG-TS
File size                      : 730 MiB
Duration                       : 39 min
Overall bit rate mode          : Variable
Overall bit rate               : 2 618 kb/s
Video
ID                             : 801 (0x321)
Menu ID                        : 1 (0x1)
Format                         : AVC
Format/Info                    : Advanced Video Codec
Format profile                 : Main@L3
Format settings, CABAC         : Yes
Format settings, ReFrames      : 4 frames
Codec ID                       : 27
Duration                       : 39 min
Bit rate                       : 2 230 kb/s
Width                          : 720 pixels
Height                         : 576 pixels
Display aspect ratio           : 4:3
Frame rate                     : 25.000 FPS
Standard                       : PAL
Color space                    : YUV
Chroma subsampling             : 4:2:0
Bit depth                      : 8 bits
Scan type                      : MBAFF
Scan type, store method        : Separated fields
Scan order                     : Top Field First
Bits/(Pixel*Frame)             : 0.215
Stream size                    : 622 MiB (85%)
Color range                    : Limited
Color primaries                : BT.601 PAL
Transfer characteristics       : BT.470 System B, BT.470 System G
Matrix coefficients            : BT.601
Audio
ID                             : 802 (0x322)
Menu ID                        : 1 (0x1)
Format                         : MPEG Audio
Format version                 : Version 1
Format profile                 : Layer 2
Codec ID                       : 3
Duration                       : 39 min
Bit rate mode                  : Constant
Bit rate                       : 256 kb/s
Channel(s)                     : 2 channels
Sampling rate                  : 48.0 kHz
Compression mode               : Lossy
Stream size                    : 71.4 MiB (10%)
Language                       : English
 




   Похожие торренты   Торрент   Размер 
В этой теме нет новых непрочитанных сообщений. Этьен. Возвращение (1998) DVB от AND03AND

2 | 1

510.38 МБ

В этой теме нет новых непрочитанных сообщений. Спектакль - Возвращение в Хатынь (1984) VHSRip от AND03AND

2 | 16

1.59 ГБ

В этой теме нет новых непрочитанных сообщений. Возвращение в "А" / Настоящий полковник (2010) DVB от AND03AND

218 | 16

1.95 ГБ

В этой теме нет новых непрочитанных сообщений. Славянский базар 2016. 14 Международный детский музыкальный конкурс (2016) DVB от AND03AND

7 | 6

2.13 ГБ

В этой теме нет новых непрочитанных сообщений. Славянский базар 2016. 25 Мгновений лета (2016) DVB от AND03AND | Полная телеверсия

26 | 5

2.11 ГБ

В этой теме нет новых непрочитанных сообщений. Главная ёлка страны 2016. Виртуальный Новый год (2016) DVB от AND03AND

33 | 7

1.25 ГБ

В этой теме нет новых непрочитанных сообщений. Славянский базар 2016. Витебск собирает друзей (2016) DVB от AND03AND

24 | 10

2.14 ГБ




Вы не можете начинать темы
Вы не можете отвечать на сообщения
Вы не можете редактировать свои сообщения
Вы не можете удалять свои сообщения
Вы не можете добавлять вложения

Перейти:  
Для Мосгорсуда, Роскомнадзора и рекламодателей: mosgorsud-torrent[собачка]yandex.ru
 Вход
ppkBB3cker v.2 © 2008-2014 @ PPK
[ Time : 0.054s | 14 Queries | GZIP : Off ]

Торрент трекер RUTOR.IN, Не можете зайти на rutor.org? Какой новый адрес рутор? Какое зеркало рутор? Не работает rutor.org и зеркала? Тогда наш торрент специально для вас. Rutor.in неофициальное зеркало rutor. В случае если у Вас заблокирован rutor или вдруг Вы не можете на него зайти, то Вы без труда сможете скачать бесплатно и без рекламы последние новинки кино, игр, сериалов и прочего у нас, на Rutor.in. Не нужно использовать прокси, чтобы зайти на рутор, достаточно воспользоваться нашим ресурсом. Все новые фильмы, игры, сериалы, книги и музыка за 2013 и 2014 годы через торрент бесплатно. Скачивайте фильмы в хорошем качестве, игры для пк, xbox, playstation без регистрации. У нас вы найдете новые Зарубежные сериалы и Русские сериалы 2013, 2014, 2015 годов. Оставайтесь с нами, качайте любимые фильмы, игры, сериалы, книги и музыку.