img image001 image001 image001 image001 image001 image001 image001 image001 image001 image001 image001 image001 image001 image001 image001

Planets Sun Sun Sun
Статистика раздачи
Автор: Nickolas3434 | Размер: 642.54 МБ | Добавлен: 13 окт 2016
Раздают: 0    Качают: 0
Скачать торрент
Скачать торрент
Описание торрента

СообщениеДобавлено: 13 окт 2016 


Информация о фильме
Название: И о чём-то другом
Год выхода: 2014
Жанр: Документальный
Режиссер: Владимир Орлов
О фильме:
«Во многой мудрости много печали» (Книга Екклесиаста, «Ветхий завет») Юзеф в ранней молодости был испытан многими соблазнами современного мира, прошел через увлечения и приобретение знаний, которые потом считал вредными. Перерождению мировоззрения и осознанному выбору жизненного пути помогла вера. А теперь он предостерегает верующих от своих же бывших, вредных для души увлечений.
«Надо творить добро, ибо его всегда не хватает!» В этом идея фильма, а фабула строится на возрождении чудотворного источника в деревне Вишнево, рядом с которой находятся православная церковь и католический костел. Такое соседство характерно для Беларуси.
Доп. информация: Доп. информация: Запись потока *.ts с наземного цифрового телеканала "Беларусь 3".
Благодарность: за помощь с недостающим материалом Bartimeyse и PavelDAS. Обоим большое спасибо!
Страна: Республика Беларусь
Студия: Чырвоны касцёл
Продолжительность: 00:35:44
Перевод: Не требуется
Файл
Кодек: AVC (H264)
Качество: DVB
Видео: MPEG4 Video (H264) 720(785)x576 (49:36) 25fps, 2 268 kb/s
Звук: MPEG Audio 48000Hz stereo 256kbps
Семпл
Код:
General
ID                             : 1 (0x1)
Complete name                  : D:Новая  земля 2\001 Документальный фильмыПутешествиеИ о чём-то другом (2014)И о чём-то другом (2014).ts
Format                         : MPEG-TS
File size                      : 679 MiB
Duration                       : 35 min
Overall bit rate mode          : Variable
Overall bit rate               : 2 658 kb/s
Video
ID                             : 513 (0x201)
Menu ID                        : 1 (0x1)
Format                         : AVC
Format/Info                    : Advanced Video Codec
Format profile                 : Main@L3
Format settings, CABAC         : Yes
Format settings, ReFrames      : 4 frames
Format settings, GOP           : M=4, N=24
Codec ID                       : 27
Duration                       : 35 min
Bit rate                       : 2 268 kb/s
Width                          : 720 pixels
Height                         : 576 pixels
Display aspect ratio           : 4:3
Frame rate                     : 25.000 FPS
Standard                       : PAL
Color space                    : YUV
Chroma subsampling             : 4:2:0
Bit depth                      : 8 bits
Scan type                      : MBAFF
Scan type, store method        : Interleaved fields
Scan order                     : Top Field First
Bits/(Pixel*Frame)             : 0.219
Stream size                    : 580 MiB (85%)
Color range                    : Limited
Color primaries                : BT.601 PAL
Transfer characteristics       : BT.470 System B, BT.470 System G
Matrix coefficients            : BT.601
Audio
ID                             : 514 (0x202)
Menu ID                        : 1 (0x1)
Format                         : MPEG Audio
Format version                 : Version 1
Format profile                 : Layer 2
Codec ID                       : 3
Duration                       : 35 min
Bit rate mode                  : Constant
Bit rate                       : 256 kb/s
Channel(s)                     : 2 channels
Sampling rate                  : 48.0 kHz
Compression mode               : Lossy
Stream size                    : 65.4 MiB (10%)
Language                       : English
 




   Похожие торренты   Торрент   Размер 
В этой теме нет новых непрочитанных сообщений. И о чём-то другом (2014) DVB от AND03AND

0 | 0

679.44 МБ

В этой теме нет новых непрочитанных сообщений. Небольшое привидение: Вы знакомы с моим другом вурдалаком? / Mostly Ghostly: Have You Met My Ghoulfriend? (2014) BDRip 1080p

11 | 0

8.7 ГБ

В этой теме нет новых непрочитанных сообщений. Небольшое привидение: Вы знакомы с моим другом вурдалаком? / Mostly Ghostly: Have You Met My Ghoulfriend? (2014) HDRip | Чистый звук

739 | 52

1.37 ГБ

В этой теме нет новых непрочитанных сообщений. Он был его другом (2015) WEBRip

254 | 13

405.3 МБ

В этой теме нет новых непрочитанных сообщений. Секс в Другом Городе / The L Word [S06] (2009) HDTVRip | L1

31 | 25

4.67 ГБ

В этой теме нет новых непрочитанных сообщений. Секс в Другом Городе / The L Word [S03] (2006) DVDRip | P1

47 | 10

7.89 ГБ

В этой теме нет новых непрочитанных сообщений. Секс в Другом Городе / The L Word [S02] (2005) DVDRip | P1

30 | 15

4.45 ГБ




Вы не можете начинать темы
Вы не можете отвечать на сообщения
Вы не можете редактировать свои сообщения
Вы не можете удалять свои сообщения
Вы не можете добавлять вложения

Перейти:  
Для Мосгорсуда, Роскомнадзора и рекламодателей: mosgorsud-torrent[собачка]yandex.ru
 Вход
ppkBB3cker v.2 © 2008-2014 @ PPK
[ Time : 1.212s | 15 Queries | GZIP : Off ]

cron