img image001 image001 image001 image001 image001 image001 image001 image001 image001 image001 image001 image001 image001 image001 image001

Planets Sun Sun Sun
Статистика раздачи
Автор: PriZraK | Размер: 1.46 ГБ | Добавлен: 01 ноя 2016
Раздают: 4    Качают: 0
Скачать торрент
Скачать торрент
Описание торрента

СообщениеДобавлено: 01 ноя 2016 


Информация о фильме
Название: Фидель Кастро. Фаворит языческого бога
Год выхода: 2008
Жанр: Документальный
Режиссер: Алексей Панков
О фильме:
Фильм рассказывает о бурной юности Фиделя, о революции на Кубе, о попытках ЦРУ избавиться от молодого наглого кубинца и о частной жизни легендарного команданте. Фильм о юности Фиделя, рождённого стать олигархом, о революции на Кубе, действующих лицах этого периода, изощрённых попытках ЦРУ избавиться от молодого наглого кубинца.
Создатели картины не обойдут стороной и частную жизнь легендарного команданте и расскажут о его гражданских женах и незаконнорожденных детях...
Уникальные материалы КГБ и ЦРУ - в документальном фильме "Фидель Кастро. Фаворит языческого бога".
Доп. информация: Запись потока *.ts с наземного цифрового телеканала "Беларусь 3".
Благодарность: за помощь с недостающим материалом Bartimeyse и PavelDAS. Обоим большое спасибо!
Страна: Россия
Студия: ООО "Бегиннинг"
Продолжительность: 00:39:00 + 00:39:48
Перевод: не требует
Файл
Кодек: AVC (H264)
Качество: DVB
Видео: MPEG4 Video (H264) 720(785)x576 (49:36) 25fps, 2 227 kb/s
Звук: MPEG Audio 48000Hz stereo 256kbps
Семпл
Фаворит языческого Бога_01_Ураган Фидель (2008)
Фаворит языческого Бога_02_Специи для спецкулинарии (2008)

Код:
General
ID                             : 1 (0x1)
Complete name                  : D:Новая  земля 2\001 Документальный фильмыЛичностиФидель Кастро. Фаворит языческого бога (2008)Фидель Кастро. Фаворит языческого бога (2008)Фаворит языческого Бога_01_Ураган Фидель (2008).ts
Format                         : MPEG-TS
File size                      : 741 MiB
Duration                       : 39 min
Overall bit rate mode          : Variable
Overall bit rate               : 2 657 kb/s
Video
ID                             : 801 (0x321)
Menu ID                        : 1 (0x1)
Format                         : AVC
Format/Info                    : Advanced Video Codec
Format profile                 : Main@L3
Format settings, CABAC         : Yes
Format settings, ReFrames      : 4 frames
Codec ID                       : 27
Duration                       : 39 min
Bit rate                       : 2 267 kb/s
Width                          : 720 pixels
Height                         : 576 pixels
Display aspect ratio           : 4:3
Frame rate                     : 25.000 FPS
Standard                       : PAL
Color space                    : YUV
Chroma subsampling             : 4:2:0
Bit depth                      : 8 bits
Scan type                      : MBAFF
Scan type, store method        : Separated fields
Scan order                     : Top Field First
Bits/(Pixel*Frame)             : 0.219
Stream size                    : 632 MiB (85%)
Color range                    : Limited
Color primaries                : BT.601 PAL
Transfer characteristics       : BT.470 System B, BT.470 System G
Matrix coefficients            : BT.601
Audio
ID                             : 802 (0x322)
Menu ID                        : 1 (0x1)
Format                         : MPEG Audio
Format version                 : Version 1
Format profile                 : Layer 2
Codec ID                       : 3
Duration                       : 39 min
Bit rate mode                  : Constant
Bit rate                       : 256 kb/s
Channel(s)                     : 2 channels
Sampling rate                  : 48.0 kHz
Compression mode               : Lossy
Stream size                    : 71.4 MiB (10%)
Language                       : English
 




   Похожие торренты   Торрент   Размер 
В этой теме нет новых непрочитанных сообщений. Фидель Кастро. Куба - любовь моя! (2016) HDTVRip-AVC

98 | 21

700.53 МБ

В этой теме нет новых непрочитанных сообщений. Фидель Кастро. Куба - любовь моя! (2016) HDTVRip 720p

56 | 9

1.59 ГБ

В этой теме нет новых непрочитанных сообщений. Фидель Кастро: потерянные плёнки / Fidel Castro: The Lost Tapes (Том Дженнингс) [2014, история, биография, SATRip]

3 | 0

630.79 МБ

В этой теме нет новых непрочитанных сообщений. Код доступа. Фидель Кастро (Эфир от 17.08.2017) (ТК Звезда) [2017, документальный,биография, SATRip]

0 | 0

459.3 МБ

В этой теме нет новых непрочитанных сообщений. Славянский Базар 2008. Беспокойное сердце - Юбилейный вечер Игоря Лученка (2008) DVB от AND03AND

10 | 1

1.42 ГБ

В этой теме нет новых непрочитанных сообщений. Романтик - Купили Бога... (2008) МР3

0 | 3

55.25 МБ

В этой теме нет новых непрочитанных сообщений. Славянский базар 2008. Антология (2008) DVB от AND03AND

1 | 1

996.52 МБ




Вы не можете начинать темы
Вы не можете отвечать на сообщения
Вы не можете редактировать свои сообщения
Вы не можете удалять свои сообщения
Вы не можете добавлять вложения

Перейти:  
Для Мосгорсуда, Роскомнадзора и рекламодателей: mosgorsud-torrent[собачка]yandex.ru
 Вход
ppkBB3cker v.2 © 2008-2014 @ PPK
[ Time : 0.035s | 15 Queries | GZIP : Off ]

cron