img image001 image001 image001 image001 image001 image001 image001 image001 image001 image001 image001 image001 image001 image001 image001

Planets Sun Sun Sun
Статистика раздачи
Автор: PriZraK | Размер: 1.42 ГБ | Добавлен: 04 ноя 2016
Раздают: 5    Качают: 6
Скачать торрент
Скачать торрент
Описание торрента

СообщениеДобавлено: 04 ноя 2016 


Информация о фильме
Название: Римма Маркова. Творческий вечер
Год выхода: 2012
Жанр: Творческий вечер
Режиссер: Сергей Касьянов
О фильме:
Творческий вечер культовой актрисы советского кинематографа Риммой Марковой. Народная артистка России, она любима несколькими поколениями зрителей. Ее яркие роли уникальная индивидуальность, огромный актерский опыт, твердая жизненная позиция – вот то, что отличает гениальную плеяду артистов того времени.
Римма Васильевна, несомненно, человек советской эпохи, но тем не менее занимает особое место в современном кино.
О театре, кино, коллегах, ролях, съемках, взаимопомощи, поступлении в институт и годах учебы и конечно о самом главном и сокровенном в актерской профессии - обовсем откровенно и искренне расскажет гениальная Римма Маркова.
Доп. информация: Запись потока *.ts с наземного цифрового телеканала "Беларусь 3".
Благодарность: за помощь с недостающим материалом Bartimeyse и PavelDAS. Обоим большое спасибо!
Страна: Россия
Студия: Иллюзион
Продолжительность: 01:16:29
Перевод: Не требует
Файл
Кодек: AVC (H264)
Качество: DVB
Видео: MPEG4 Video (H264) 720(785)x576 (49:36) 25fps, 2 267 kb/s
Звук: MPEG Audio 48000Hz stereo 256kbps
Семпл
Код:
General
ID                             : 1 (0x1)
Complete name                  : D:Новая  земля 2Театр\002 Творческие вечераТворческий вечер. Римма Маркова (2012)Творческий вечер. Римма Маркова (2012).ts
Format                         : MPEG-TS
File size                      : 1.42 GiB
Duration                       : 1 h 16 min
Overall bit rate mode          : Variable
Overall bit rate               : 2 657 kb/s
Video
ID                             : 801 (0x321)
Menu ID                        : 1 (0x1)
Format                         : AVC
Format/Info                    : Advanced Video Codec
Format profile                 : Main@L3
Format settings, CABAC         : Yes
Format settings, ReFrames      : 4 frames
Codec ID                       : 27
Duration                       : 1 h 16 min
Bit rate                       : 2 267 kb/s
Width                          : 720 pixels
Height                         : 576 pixels
Display aspect ratio           : 4:3
Frame rate                     : 25.000 FPS
Standard                       : PAL
Color space                    : YUV
Chroma subsampling             : 4:2:0
Bit depth                      : 8 bits
Scan type                      : MBAFF
Scan type, store method        : Separated fields
Scan order                     : Top Field First
Bits/(Pixel*Frame)             : 0.219
Stream size                    : 1.21 GiB (85%)
Color range                    : Limited
Color primaries                : BT.601 PAL
Transfer characteristics       : BT.470 System B, BT.470 System G
Matrix coefficients            : BT.601
Audio
ID                             : 802 (0x322)
Menu ID                        : 1 (0x1)
Format                         : MPEG Audio
Format version                 : Version 1
Format profile                 : Layer 2
Codec ID                       : 3
Duration                       : 1 h 16 min
Bit rate mode                  : Constant
Bit rate                       : 256 kb/s
Channel(s)                     : 2 channels
Sampling rate                  : 48.0 kHz
Compression mode               : Lossy
Stream size                    : 140 MiB (10%)
Language                       : English





   Похожие торренты   Торрент   Размер 
В этой теме нет новых непрочитанных сообщений. Лев Дуров. Творческий вечер (2012) DVB от AND03AND

105 | 5

1.25 ГБ

В этой теме нет новых непрочитанных сообщений. Творческий вечер - К 85-летию народного артиста СССР Ростислава Янковского (2015) DVB от AND03AND

1 | 3

1.04 ГБ

В этой теме нет новых непрочитанных сообщений. Нам не жить друг без друга - Творческий вечер Александры Пахмутовой / Славянский базар в Витебске (2015) DVB от AND03AND

2 | 4

1.58 ГБ

В этой теме нет новых непрочитанных сообщений. Нам не жить друг без друга - Творческий вечер Александры Пахмутовой / Славянский базар в Витебске (2015) DVB от AND03AND

25 | 15

1.63 ГБ

В этой теме нет новых непрочитанных сообщений. Новая Волна 2012. Творческий вечер Константина Меладзе [27.07] (2012) IPTVRip от Files-х

324 | 6

2.43 ГБ

В этой теме нет новых непрочитанных сообщений. Мистер Трололо - Творческий вечер Эдуарда Хиля (2010) TVRip

62 | 6

2.24 ГБ

В этой теме нет новых непрочитанных сообщений. Новая волна-2010 [Творческий вечер Д. Тухманова] (2010) IPTVRip от Drakula

2 | 3

1.76 ГБ




Вы не можете начинать темы
Вы не можете отвечать на сообщения
Вы не можете редактировать свои сообщения
Вы не можете удалять свои сообщения
Вы не можете добавлять вложения

Перейти:  
Для Мосгорсуда, Роскомнадзора и рекламодателей: mosgorsud-torrent[собачка]yandex.ru
 Вход
ppkBB3cker v.2 © 2008-2014 @ PPK
[ Time : 0.040s | 14 Queries | GZIP : Off ]

Торрент трекер RUTOR.IN, Не можете зайти на rutor.org? Какой новый адрес рутор? Какое зеркало рутор? Не работает rutor.org и зеркала? Тогда наш торрент специально для вас. Rutor.in неофициальное зеркало rutor. В случае если у Вас заблокирован rutor или вдруг Вы не можете на него зайти, то Вы без труда сможете скачать бесплатно и без рекламы последние новинки кино, игр, сериалов и прочего у нас, на Rutor.in. Не нужно использовать прокси, чтобы зайти на рутор, достаточно воспользоваться нашим ресурсом. Все новые фильмы, игры, сериалы, книги и музыка за 2013 и 2014 годы через торрент бесплатно. Скачивайте фильмы в хорошем качестве, игры для пк, xbox, playstation без регистрации. У нас вы найдете новые Зарубежные сериалы и Русские сериалы 2013, 2014, 2015 годов. Оставайтесь с нами, качайте любимые фильмы, игры, сериалы, книги и музыку.