img image001 image001 image001 image001 image001 image001 image001 image001 image001 image001 image001 image001 image001 image001 image001

Planets Sun Sun Sun
Статистика раздачи
Автор: PriZraK | Размер: 3.46 ГБ | Добавлен: 05 ноя 2016
Раздают: 0    Качают: 0
Скачать торрент
Скачать торрент
Описание торрента

СообщениеДобавлено: 05 ноя 2016 


Информация о фильме
Название: Банда «Белый фиат»
Оригинальное название: Uno bianca
Год выхода: 2001
Жанр: драма
Режиссер: Микеле Соави / Michele Soavi
В ролях: Ким Росси Стюарт, Дино Аббрешия, Бруно Армандо, Пиетро Бонтемпо, Клаудио Ботоссо, Matteo Chioatto, Giorgio Crisafi, Luciano Curreli, Массимо Де Росси, Сильвия Де Сантис
О фильме:
В Римини взорван магазин - шантажисты требуют от его хозяина уплаты «дани». Полиция теряется в догадках: налетчики-любители? мафия? террористы? Инспектор Валерио Мальдези и его напарник Рокко уверены - до их тихого провинциального города добралась банда «Белый фиат», давно орудующая в Болонье. Ее «стиль» - грабежи банков, нападения на автозаправочные станции и супермаркеты, десятки убитых и - никаких следов.

Страна: Италия
Студия: Taodue Film
Продолжительность: 03:11:00.080
Перевод: Профессиональный (двухголосый закадровый) R5
Файл
Кодек: h.264
Качество: DVDRip-AVC Исходник R5 DVD9
Видео: 720x576 (16:9) @ 1024x576, 25.000 fps, AVC, ~2161 Kbps, 0.208 bits/pixel
Звук:
Русский, 48.0 KHz, AC3, 2 ch, 192 Kbps
Итальянский, 48.0 KHz, AC3, 2 ch, 192 Kbps
Субтитры: Русские,SRT(UTF-8) R5
Общее
Уникальный идентификатор : 237046871669490896765763160900955751802 (0xB255911C3D746C078A42E9CE5FC3457A)
Полное имя : D:FILMSBanda_Beliy_Fiat.2001.DVDRip-AVC.mkv
Формат : Matroska
Версия формата : Version 4 / Version 2
Размер файла : 3,46 Гбайт
Продолжительность : 3 ч. 11 м.
Общий поток : 2597 Кбит/сек
Дата кодирования : UTC 2016-11-04 15:29:50
Программа кодирования : mkvmerge v9.5.0 ('Quiet Fire') 64bit
Библиотека кодирования : libebml v1.3.4 + libmatroska v1.4.5
Видео
Идентификатор : 1
Формат : AVC
Формат/Информация : Advanced Video Codec
Профиль формата : High@L4.1
Параметр CABAC формата : Да
Параметр ReFrames формата : 11 кадров
Идентификатор кодека : V_MPEG4/ISO/AVC
Продолжительность : 3 ч. 11 м.
Битрейт : 2210 Кбит/сек
Ширина : 720 пикселей
Высота : 576 пикселей
Соотношение сторон : 16:9
Режим частоты кадров : Постоянный
Частота кадров : 25,000 кадров/сек
Стандарт вещания : PAL
Цветовое пространство : YUV
Субдискретизация насыщенности : 4:2:0
Битовая глубина : 8 бит
Тип развёртки : Прогрессивная
Бит/(Пиксели*Кадры) : 0.213
Размер потока : 2,95 Гбайт (85%)
Библиотека кодирования : x264 core 148 r2638 7599210
Настройки программы : cabac=1 / ref=11 / deblock=1:0:0 / analyse=0x3:0x133 / me=umh / subme=11 / psy=1 / psy_rd=1.10:0.15 / mixed_ref=1 / me_range=48 / chroma_me=1 / trellis=2 / 8x8dct=1 / cqm=0 / deadzone=21,11 / fast_pskip=0 / chroma_qp_offset=-3 / threads=8 / lookahead_threads=1 / sliced_threads=0 / nr=0 / decimate=0 / interlaced=0 / bluray_compat=0 / constrained_intra=0 / bframes=9 / b_pyramid=2 / b_adapt=2 / b_bias=0 / direct=3 / weightb=1 / open_gop=0 / weightp=2 / keyint=250 / keyint_min=25 / scenecut=40 / intra_refresh=0 / rc_lookahead=60 / rc=crf / mbtree=0 / crf=18.5 / qcomp=0.60 / qpmin=0 / qpmax=69 / qpstep=4 / vbv_maxrate=40000 / vbv_bufsize=50000 / crf_max=0.0 / nal_hrd=none / filler=0 / ip_ratio=1.40 / pb_ratio=1.30 / aq=1:1.00
Default : Нет
Forced : Нет
Цветовой диапазон : Limited
Коэффициенты матрицы : BT.601
Аудио #1
Идентификатор : 2
Формат : AC-3
Формат/Информация : Audio Coding 3
Расширение режима : CM (complete main)
Параметр Endianness формата : Big
Идентификатор кодека : A_AC3
Продолжительность : 3 ч. 10 м.
Вид битрейта : Постоянный
Битрейт : 192 Кбит/сек
Каналы : 2 канала
Расположение каналов : Front: L R
Частота : 48,0 КГц
Частота кадров : 31,250 кадров/сек (1536 spf)
Метод сжатия : С потерями
Размер потока : 262 Мбайт (7%)
Язык : Russian
Default : Да
Forced : Нет
Аудио #2
Идентификатор : 3
Формат : AC-3
Формат/Информация : Audio Coding 3
Расширение режима : CM (complete main)
Параметр Endianness формата : Big
Идентификатор кодека : A_AC3
Продолжительность : 3 ч. 11 м.
Вид битрейта : Постоянный
Битрейт : 192 Кбит/сек
Каналы : 2 канала
Расположение каналов : Front: L R
Частота : 48,0 КГц
Частота кадров : 31,250 кадров/сек (1536 spf)
Метод сжатия : С потерями
Размер потока : 262 Мбайт (7%)
Язык : Italian
Default : Нет
Forced : Нет
Текст
Идентификатор : 4
Формат : UTF-8
Идентификатор кодека : S_TEXT/UTF8
Идентификатор кодека/Информация : UTF-8 Plain Text
Продолжительность : 3 ч. 8 м.
Битрейт : 88 бит/сек
Count of elements : 1818
Размер потока : 122 Кбайт (0%)
Язык : Russian
Default : Нет
Forced : Нет
Меню
00:00:00.000 : en:Chapter 01
00:06:38.760 : en:Chapter 02
00:12:22.800 : en:Chapter 03
00:19:14.160 : en:Chapter 04
00:30:13.920 : en:Chapter 05
00:42:20.640 : en:Chapter 06
00:52:11.640 : en:Chapter 07
01:01:22.680 : en:Chapter 08
01:09:47.880 : en:Chapter 09
01:18:06.360 : en:Chapter 10
01:24:01.680 : en:Chapter 11
01:30:29.640 : en:Chapter 12
01:35:35.360 : en:Chapter 13
01:45:12.080 : en:Chapter 14
01:51:26.960 : en:Chapter 15
01:59:56.960 : en:Chapter 16
02:06:40.880 : en:Chapter 17
02:17:35.960 : en:Chapter 18
02:25:59.000 : en:Chapter 19
02:35:35.480 : en:Chapter 20
02:39:44.480 : en:Chapter 21
02:47:52.880 : en:Chapter 22
02:52:58.640 : en:Chapter 23
03:02:50.600 : en:Chapter 24

Релиз от: Temperest



   Похожие торренты   Торрент   Размер 
В этой теме нет новых непрочитанных сообщений. Банда «Белый фиат» / Uno bianca (2001) DVDRip - LOOK

5 | 8

2.46 ГБ

В этой теме нет новых непрочитанных сообщений. Банда «Белый фиат» / Uno bianca (2001) DVDRip от FilmRus | P2

447 | 21

2.74 ГБ

В этой теме нет новых непрочитанных сообщений. Белый клык / Zanna Bianca (1973) DVDRip

235 | 13

677.49 МБ

В этой теме нет новых непрочитанных сообщений. Белый Клык / Zanna Bianca (1973) DVDRip от Киномагия

192 | 5

1.37 ГБ

В этой теме нет новых непрочитанных сообщений. Белый Клык спешит на помощь / Zanna bianca alla riscossa (1974) DVDRip от ExKinoRay | L1

54 | 1

1.37 ГБ

В этой теме нет новых непрочитанных сообщений. Банда Ольсена в юности / Olsen Banden Junior (2001) DVDRip | P1

55 | 30

1.37 ГБ

В этой теме нет новых непрочитанных сообщений. Банда отца / Папина банда / La Bande a Papa (1956) DVDRip - LTarik

199 | 2

1.09 ГБ




Вы не можете начинать темы
Вы не можете отвечать на сообщения
Вы не можете редактировать свои сообщения
Вы не можете удалять свои сообщения
Вы не можете добавлять вложения

Перейти:  
Для Мосгорсуда, Роскомнадзора и рекламодателей: mosgorsud-torrent[собачка]yandex.ru
 Вход
ppkBB3cker v.2 © 2008-2014 @ PPK
[ Time : 0.099s | 15 Queries | GZIP : Off ]

Торрент трекер RUTOR.IN, Не можете зайти на rutor.org? Какой новый адрес рутор? Какое зеркало рутор? Не работает rutor.org и зеркала? Тогда наш торрент специально для вас. Rutor.in неофициальное зеркало rutor. В случае если у Вас заблокирован rutor или вдруг Вы не можете на него зайти, то Вы без труда сможете скачать бесплатно и без рекламы последние новинки кино, игр, сериалов и прочего у нас, на Rutor.in. Не нужно использовать прокси, чтобы зайти на рутор, достаточно воспользоваться нашим ресурсом. Все новые фильмы, игры, сериалы, книги и музыка за 2013 и 2014 годы через торрент бесплатно. Скачивайте фильмы в хорошем качестве, игры для пк, xbox, playstation без регистрации. У нас вы найдете новые Зарубежные сериалы и Русские сериалы 2013, 2014, 2015 годов. Оставайтесь с нами, качайте любимые фильмы, игры, сериалы, книги и музыку.
cron