img image001 image001 image001 image001 image001 image001 image001 image001 image001 image001 image001 image001 image001 image001 image001

Planets Sun Sun Sun
Статистика раздачи
Автор: PriZraK | Размер: 6.75 ГБ | Добавлен: 07 ноя 2016
Раздают: 0    Качают: 0
Скачать торрент
Скачать торрент
Описание торрента

СообщениеДобавлено: 07 ноя 2016 


Информация о фильме
Название: Мастера и кумиры / Майстры і куміры [01-07 из ?]
Год выхода: 2016
Жанр: Документальный
Режиссер: Владимир Биндюков
О фильме:
В эфире телеканала «Беларусь 3» состоялась премьера программы «Мастера и кумиры». Новый проект знакомит телезрителей с киновидеофондами Белтелерадиокомпании.
Ведущая программы Марина Драгина и гости студии, знаменитые деятели культуры, вспоминают мастеров - кумиров разных поколений, обращают внимание на культурное наследие, которая уже много лет хранится в архивах медиохолдинга. Это редкие, уникальные записи с участием белорусских поэтов и писателей, артистов, оперных и эстрадных исполнителей, общественных деятелей. Особую ценность имеют телевизионные спектакли, в которых занят знаменитые мастера белорусского сцены разных поколений. И все это можно будет увидеть в новой программе на телеканале «Беларусь 3».
«Мастера и кумиры» познакомят с фондами Белтелерадиокомпании, насчитывающие тысячи единиц телевизионной продукции. Благодаря новому проекту они станут более доступными для зрителей и расскажут об истории белорусского искусства, жизнь и творчество талантливых людей нашей страны и ближнего зарубежья.
Доп. информация: Запись потока *.ts с наземного цифрового телеканала "Беларусь 3".
Мастера и кумиры. Ансамбль народной музыки Бяседа (2016).ts
Мастера и кумиры. Борис Луценко - режиссер, народный артист Беларуси (2016).ts
Мастера и кумиры. Виктор Вуячич (2016).ts
Мастера и кумиры. Народная артистка БССР Наталья Гайда (2016).ts
Мастера и кумиры. Народный артист Беларуси Александр Ефремов (2016).ts
Мастера и кумиры. Народный артист СССР Ростислав Янковский (2016).ts
Мастера и кумиры. Оперный певец, зас. артист РБ Олег Мельников (2016).ts

Внимание! Раздача ведётся путём добавления новых серий; при каждом добавлении создётся новый торрент. Чтобы начать докачку новой серии, пользователям необходимо сделать следующее:
(1) остановить скачивание,
(2) удалить старый торрент у себя из клиента (старые серии удалять не надо),
(3) скачать новый торрент и запустить его у себя в клиенте вместо старого, при этом указать клиенту путь в старую папку куда и должно происходить скачивание новых серий.
Ваш клиент при этом должен произвести хеширование (проверку) старой папки (если не производит сам - помогите ему сделать это), и будет докачивать только те серии которых у вас ещё нет. Старые серии при этом не удаляются, а продолжают раздаваться!
Eсли вы уже удалили старые серии, то предотвратить повторную закачку старых серий можно, отжав галочку в соответсвующих местах при запуске нового торрента. По возможности, желательно не удалять старые серии как можно дольше чтобы релизёр не столько продолжал раздавать старые серии, а смог сконцентрироваться на новых.

Благодарность: за помощь с недостающим материалом Bartimeyse и PavelDAS. Обоим большое спасибо!
Страна: Республика Беларусь
Студия: Белтелерадиокомпания
Продолжительность: 00:52:00 * 7
Перевод: не требуется
Файл
Кодек: AVC (H264)
Качество: DVB
Видео: MPEG4 Video (H264) 720(785)x576 (49:36) 25fps, ~ 2 267 kb/s
Звук: MPEG Audio 48000Hz stereo 256kbps
Семпл
Код:
General
ID                             : 1 (0x1)
Complete name                  : D:Новая  земля 2�01 Документальный фильмыЛичностиМайстры і куміры - Мастера и кумиры (2016)Майстры і куміры (2016)Мастера и кумиры. Виктор Вуячич (2016).ts
Format                         : MPEG-TS
File size                      : 988 MiB
Duration                       : 52 min
Overall bit rate mode          : Variable
Overall bit rate               : 2 657 kb/s
Video
ID                             : 801 (0x321)
Menu ID                        : 1 (0x1)
Format                         : AVC
Format/Info                    : Advanced Video Codec
Format profile                 : Main@L3
Format settings, CABAC         : Yes
Format settings, ReFrames      : 4 frames
Codec ID                       : 27
Duration                       : 52 min
Bit rate                       : 2 267 kb/s
Width                          : 720 pixels
Height                         : 576 pixels
Display aspect ratio           : 4:3
Frame rate                     : 25.000 FPS
Standard                       : PAL
Color space                    : YUV
Chroma subsampling             : 4:2:0
Bit depth                      : 8 bits
Scan type                      : MBAFF
Scan type, store method        : Separated fields
Scan order                     : Top Field First
Bits/(Pixel*Frame)             : 0.219
Stream size                    : 843 MiB (85%)
Color range                    : Limited
Color primaries                : BT.601 PAL
Transfer characteristics       : BT.470 System B, BT.470 System G
Matrix coefficients            : BT.601
Audio
ID                             : 802 (0x322)
Menu ID                        : 1 (0x1)
Format                         : MPEG Audio
Format version                 : Version 1
Format profile                 : Layer 2
Codec ID                       : 3
Duration                       : 52 min
Bit rate mode                  : Constant
Bit rate                       : 256 kb/s
Channel(s)                     : 2 channels
Sampling rate                  : 48.0 kHz
Compression mode               : Lossy
Stream size                    : 95.2 MiB (10%)
Language                       : English
 




   Похожие торренты   Торрент   Размер 
В этой теме нет новых непрочитанных сообщений. Славянский базар 2016. 25 Мгновений лета (2016) DVB от AND03AND | Полная телеверсия

26 | 5

2.11 ГБ

В этой теме нет новых непрочитанных сообщений. Славянский базар 2016. 14 Международный детский музыкальный конкурс (2016) DVB от AND03AND

7 | 6

2.13 ГБ

В этой теме нет новых непрочитанных сообщений. Мастера секса / Masters of Sex [S04] (2016) WEBRip | IdeaFilm

7 | 3

7.6 ГБ

В этой теме нет новых непрочитанных сообщений. Славянский базар 2016. Витебск собирает друзей (2016) DVB от AND03AND

24 | 10

2.14 ГБ

В этой теме нет новых непрочитанных сообщений. Славянский базар 2016. Открытие (Полная телеверсия) (2016) DVB от AND03AND

103 | 17

4 ГБ

В этой теме нет новых непрочитанных сообщений. Главная ёлка страны 2016. Виртуальный Новый год (2016) DVB от AND03AND

33 | 7

1.25 ГБ

В этой теме нет новых непрочитанных сообщений. Славянский базар 2016. Торжественное закрытие 25 Международного фестиваля искусств (2016) DVB от AND03AND

48 | 3

3.49 ГБ




Вы не можете начинать темы
Вы не можете отвечать на сообщения
Вы не можете редактировать свои сообщения
Вы не можете удалять свои сообщения
Вы не можете добавлять вложения

Перейти:  
Для Мосгорсуда, Роскомнадзора и рекламодателей: mosgorsud-torrent[собачка]yandex.ru
 Вход
ppkBB3cker v.2 © 2008-2014 @ PPK
[ Time : 0.074s | 14 Queries | GZIP : Off ]

Торрент трекер RUTOR.IN, Не можете зайти на rutor.org? Какой новый адрес рутор? Какое зеркало рутор? Не работает rutor.org и зеркала? Тогда наш торрент специально для вас. Rutor.in неофициальное зеркало rutor. В случае если у Вас заблокирован rutor или вдруг Вы не можете на него зайти, то Вы без труда сможете скачать бесплатно и без рекламы последние новинки кино, игр, сериалов и прочего у нас, на Rutor.in. Не нужно использовать прокси, чтобы зайти на рутор, достаточно воспользоваться нашим ресурсом. Все новые фильмы, игры, сериалы, книги и музыка за 2013 и 2014 годы через торрент бесплатно. Скачивайте фильмы в хорошем качестве, игры для пк, xbox, playstation без регистрации. У нас вы найдете новые Зарубежные сериалы и Русские сериалы 2013, 2014, 2015 годов. Оставайтесь с нами, качайте любимые фильмы, игры, сериалы, книги и музыку.