img image001 image001 image001 image001 image001 image001 image001 image001 image001 image001 image001 image001 image001 image001 image001

Planets Sun Sun Sun
Статистика раздачи
Автор: PriZraK | Размер: 1.41 ГБ | Добавлен: 14 ноя 2016
Раздают: 13    Качают: 12
Скачать торрент
Скачать торрент
Описание торрента

СообщениеДобавлено: 14 ноя 2016 


Информация о фильме
Название: Военные истории любимых артистов [01-02 из 02]
Год выхода: 2014
Жанр: Документальный
О фильме:
Они не думали стать солдатами, к военной карьере себя не готовили, мечтали совсем о другом. Но война есть война. И вот в 1941 вместе с миллионами советских людей они ушли на фронт. Они воевали поистине героически - об этом говорят их ордена и медали, а также сухие казенные тексты наградных листов. Они были ранены , но им повезло: они выстояли, они выжили...
Они победители!
А после 1945-го осуществилась их заветная мечта: они стали актёрами. Но что бы ни делала с ними жизнь, они всегда помнили о войне, и эта память возвращала их к чему-то очень важному и очень личному. В фильме рассказывается о военной истории наших любимых артистов, а также и о том, как отразилась война на их дальнейшей творческой судьбе.
Доп. информация: Запись потока *.ts с наземного цифрового телеканала "Беларусь 3".
Благодарность: за помощь с недостающим материалом Bartimeyse и PavelDAS. Обоим большое спасибо!
Страна: Россия
Студия: ООО "Вианж Продакшн"
Продолжительность: 00:38:00 * 2
Перевод: не требует
Файл
Кодек: AVC (H264)
Качество: DVB
Видео: MPEG4 Video (H264) 720(785)x576 (49:36) 25fps, 2 264 kb/s
Звук: MPEG Audio 48000Hz stereo 256kbps
Семпл
ВИЛА. Владислав Стржельчик и Павел Луспекаев (2014).ts
ВИЛА. Зиновий Гердт и Михаил Пуговкин (2014).ts

Код:
General
ID                             : 1 (0x1)
Complete name                  : D:Новая  земля 2�01 Документальный фильмыВОВ и другие войныВоенные истории любимых артистов (2014)Военные истории любимых артистов (2014)ВИЛА. Владислав Стржельчик и Павел Луспекаев (2014).ts
Format                         : MPEG-TS
File size                      : 721 MiB
Duration                       : 38 min
Overall bit rate mode          : Variable
Overall bit rate               : 2 653 kb/s
Video
ID                             : 801 (0x321)
Menu ID                        : 1 (0x1)
Format                         : AVC
Format/Info                    : Advanced Video Codec
Format profile                 : Main@L3
Format settings, CABAC         : Yes
Format settings, ReFrames      : 4 frames
Format settings, GOP           : M=4, N=24
Codec ID                       : 27
Duration                       : 38 min
Bit rate                       : 2 264 kb/s
Width                          : 720 pixels
Height                         : 576 pixels
Display aspect ratio           : 4:3
Frame rate                     : 25.000 FPS
Standard                       : PAL
Color space                    : YUV
Chroma subsampling             : 4:2:0
Bit depth                      : 8 bits
Scan type                      : MBAFF
Scan type, store method        : Interleaved fields
Scan order                     : Top Field First
Bits/(Pixel*Frame)             : 0.218
Stream size                    : 615 MiB (85%)
Color range                    : Limited
Color primaries                : BT.601 PAL
Transfer characteristics       : BT.470 System B, BT.470 System G
Matrix coefficients            : BT.601
Audio
ID                             : 802 (0x322)
Menu ID                        : 1 (0x1)
Format                         : MPEG Audio
Format version                 : Version 1
Format profile                 : Layer 2
Codec ID                       : 3
Duration                       : 38 min
Bit rate mode                  : Constant
Bit rate                       : 256 kb/s
Channel(s)                     : 2 channels
Sampling rate                  : 48.0 kHz
Compression mode               : Lossy
Stream size                    : 69.6 MiB (10%)
Language                       : English
 




   Похожие торренты   Торрент   Размер 
В этой теме нет новых непрочитанных сообщений. Фронтовые истории любимых актёров [01-04 из 04] (2013-2014) DVB от AND03AND

16 | 2

2.78 ГБ

В этой теме нет новых непрочитанных сообщений. Загадки русской истории [01-08 из 08] (2006) DVB от AND03AND

183 | 41

3.66 ГБ

В этой теме нет новых непрочитанных сообщений. Футбол. Чемпионат мира среди артистов 2013. Россия - Англия (2013) SATRip

1 | 1

1.42 ГБ

В этой теме нет новых непрочитанных сообщений. Сборник - 100 Красивых песен для любимых (2014) MP3 от Генерал ВДВ

1320 | 363

1007.86 МБ

В этой теме нет новых непрочитанных сообщений. Сборник - Ах,какая женщина! Песни для любимых (2014) MP3

311 | 80

699.7 МБ

В этой теме нет новых непрочитанных сообщений. Машенька Огорелышева и Владимир Чадов - Для моих любимых (Т/х. Козьма Минин) (2014) mp3

37 | 3

93.4 МБ

В этой теме нет новых непрочитанных сообщений. Военные тайны Балкан. Освобождение Белграда (2014) SATRip от Generalfilm

36 | 21

550.95 МБ




Вы не можете начинать темы
Вы не можете отвечать на сообщения
Вы не можете редактировать свои сообщения
Вы не можете удалять свои сообщения
Вы не можете добавлять вложения

Перейти:  
Для Мосгорсуда, Роскомнадзора и рекламодателей: mosgorsud-torrent[собачка]yandex.ru
 Вход
ppkBB3cker v.2 © 2008-2014 @ PPK
[ Time : 0.081s | 15 Queries | GZIP : Off ]

Торрент трекер RUTOR.IN, Не можете зайти на rutor.org? Какой новый адрес рутор? Какое зеркало рутор? Не работает rutor.org и зеркала? Тогда наш торрент специально для вас. Rutor.in неофициальное зеркало rutor. В случае если у Вас заблокирован rutor или вдруг Вы не можете на него зайти, то Вы без труда сможете скачать бесплатно и без рекламы последние новинки кино, игр, сериалов и прочего у нас, на Rutor.in. Не нужно использовать прокси, чтобы зайти на рутор, достаточно воспользоваться нашим ресурсом. Все новые фильмы, игры, сериалы, книги и музыка за 2013 и 2014 годы через торрент бесплатно. Скачивайте фильмы в хорошем качестве, игры для пк, xbox, playstation без регистрации. У нас вы найдете новые Зарубежные сериалы и Русские сериалы 2013, 2014, 2015 годов. Оставайтесь с нами, качайте любимые фильмы, игры, сериалы, книги и музыку.