img image001 image001 image001 image001 image001 image001 image001 image001 image001 image001 image001 image001 image001 image001 image001

Planets Sun Sun Sun
Статистика раздачи
Автор: PriZraK | Размер: 34.76 ГБ | Добавлен: 15 ноя 2016
Раздают: 0    Качают: 4
Скачать торрент
Скачать торрент
Описание торрента

СообщениеДобавлено: 15 ноя 2016 

Однажды в России


Год выпуска: 2014-2016
Страна: Россия
Производство: ТНТ
Жанр: Юмор
Режиссёр: Роман Новиков
Ведущие: Вадим Галыгин
В ролях: Вадим Галыгин, Давид Цаллаев, Заурбек Байцаев, Ольга Картункова, Ирина Чеснокова, Максим Киселев, Игорь Ласточкин, Теймураз Тания, Денис Дорохов, Азамат Мусагалиев
Описание: Шоу «Однажды в России», как и многие проекты ТНТ, имеет оригинальный формат. Это будет «реальный театр». То есть заранее написанный сценарий герой шоу «Однажды в России» постарается воплотить в повседневной жизни. А это совсем не так просто, как может показаться сначала, но зато очень смешно. Передача построена на чередовании скетчей. Создатели «Однажды в России» – Семен Слепаков и Слава Дусмухаметов, за плечами которых – продюсирование сериала «Интерны», «Наша RUSSIA», и других нашумевших фильмов и передач. В роли ведущего выступит Вадим Галыгин.

Качество: WEB-DLRip-AVC
Продолжительность: 52 х 00:50:00
Формат: MKV
Видео кодек: AVC
Аудио кодек: AC3
Видео: 1024x576 (16:9), 25 fps, MPEG-4 AVC ~1800 kbps avg, 0.122 bit/pixel
Аудио: AC3, 48 kHz, 2 ch, ~192 kbps | RUS

Релиз от: Rip by:
Общее
Уникальный идентификатор : 176302510891939983316442701188292578179 (0x84A2A0E55BF7BFBA80314BFF98A28B83)
Полное имя : D:Odnazhdy.v.Rossii.WEB-DLRip(AVC).ExKinoRayOdnazhdy.v.Rossii.e04.s06.WEB-DLRip(AVC).ExKinoRay.mkv
Формат : Matroska
Версия формата : Version 2
Размер файла : 699 Мбайт
Продолжительность : 49 м.
Общий поток : 1994 Кбит/сек
Дата кодирования : UTC 2016-11-12 13:24:50
Программа кодирования : mkvmerge v7.8.0 ('River Man') 32bit built on Apr 3 2015 12:11:22
Библиотека кодирования : libebml v1.3.1 + libmatroska v1.4.2
Видео
Идентификатор : 1
Формат : AVC
Формат/Информация : Advanced Video Codec
Профиль формата : High@L4.1
Параметр CABAC формата : Да
Параметр ReFrames формата : 10 кадров
Идентификатор кодека : V_MPEG4/ISO/AVC
Продолжительность : 49 м.
Битрейт : 1800 Кбит/сек
Ширина : 1024 пикселя
Высота : 576 пикселей
Соотношение сторон : 16:9
Режим частоты кадров : Постоянный
Частота кадров : 25,000 кадров/сек
Цветовое пространство : YUV
Субдискретизация насыщенности : 4:2:0
Битовая глубина : 8 бит
Тип развёртки : Прогрессивная
Бит/(Пиксели*Кадры) : 0.122
Размер потока : 618 Мбайт (88%)
Библиотека кодирования : x264 core 146 r2538 121396c
Настройки программы : cabac=1 / ref=10 / deblock=1:-3:-3 / analyse=0x3:0x133 / me=umh / subme=11 / psy=1 / psy_rd=1.00:0.03 / mixed_ref=1 / me_range=48 / chroma_me=1 / trellis=2 / 8x8dct=1 / cqm=0 / deadzone=21,11 / fast_pskip=0 / chroma_qp_offset=-3 / threads=6 / lookahead_threads=1 / sliced_threads=0 / nr=0 / decimate=0 / interlaced=0 / bluray_compat=0 / constrained_intra=0 / bframes=10 / b_pyramid=2 / b_adapt=2 / b_bias=0 / direct=3 / weightb=1 / open_gop=0 / weightp=2 / keyint=240 / keyint_min=24 / scenecut=40 / intra_refresh=0 / rc_lookahead=40 / rc=2pass / mbtree=0 / bitrate=1800 / ratetol=1.0 / qcomp=0.60 / qpmin=0 / qpmax=69 / qpstep=4 / cplxblur=20.0 / qblur=0.5 / vbv_maxrate=50000 / vbv_bufsize=62500 / nal_hrd=none / filler=0 / ip_ratio=1.40 / pb_ratio=1.30 / aq=1:1.00
Default : Да
Forced : Нет
Аудио
Идентификатор : 2
Формат : AC-3
Формат/Информация : Audio Coding 3
Расширение режима : CM (complete main)
Параметр Endianness формата : Big
Идентификатор кодека : A_AC3
Продолжительность : 49 м.
Вид битрейта : Постоянный
Битрейт : 192 Кбит/сек
Каналы : 2 канала
Расположение каналов : Front: L R
Частота : 48,0 КГц
Битовая глубина : 16 бит
Метод сжатия : С потерями
Размер потока : 67,4 Мбайт (10%)
Default : Да
Forced : Нет






   Похожие торренты   Торрент   Размер 
В этой теме нет новых непрочитанных сообщений. Однажды в России [04x01] (2016) WEB-DLRip от ExKinoRay

6 | 2

2.9 ГБ

В этой теме нет новых непрочитанных сообщений. Однажды в России [04x01] (2016) WEB-DLRip от ExKinoRay

67 | 28

1.74 ГБ

В этой теме нет новых непрочитанных сообщений. Однажды в России [01-04] (2014) WEB-DLRip-AVC от ExKinoRay

224 | 92

2.72 ГБ

В этой теме нет новых непрочитанных сообщений. Однажды в России [01-11] (2014) WEB-DLRip-AVC от ExKinoRay

130 | 56

6.07 ГБ

В этой теме нет новых непрочитанных сообщений. Однажды в России [01-02] (2014) WEB-DLRip-AVC от ExKinoRay

22 | 5

1.01 ГБ

В этой теме нет новых непрочитанных сообщений. Однажды в России [01-10] (2014) WEB-DLRip-AVC от ExKinoRay

92 | 41

5.51 ГБ

В этой теме нет новых непрочитанных сообщений. Однажды в России [01-12] (2014) WEB-DLRip-AVC от ExKinoRay

356 | 130

6.63 ГБ




Вы не можете начинать темы
Вы не можете отвечать на сообщения
Вы не можете редактировать свои сообщения
Вы не можете удалять свои сообщения
Вы не можете добавлять вложения

Перейти:  
Для Мосгорсуда, Роскомнадзора и рекламодателей: mosgorsud-torrent[собачка]yandex.ru
 Вход
ppkBB3cker v.2 © 2008-2014 @ PPK
[ Time : 0.066s | 15 Queries | GZIP : Off ]

Торрент трекер RUTOR.IN, Не можете зайти на rutor.org? Какой новый адрес рутор? Какое зеркало рутор? Не работает rutor.org и зеркала? Тогда наш торрент специально для вас. Rutor.in неофициальное зеркало rutor. В случае если у Вас заблокирован rutor или вдруг Вы не можете на него зайти, то Вы без труда сможете скачать бесплатно и без рекламы последние новинки кино, игр, сериалов и прочего у нас, на Rutor.in. Не нужно использовать прокси, чтобы зайти на рутор, достаточно воспользоваться нашим ресурсом. Все новые фильмы, игры, сериалы, книги и музыка за 2013 и 2014 годы через торрент бесплатно. Скачивайте фильмы в хорошем качестве, игры для пк, xbox, playstation без регистрации. У нас вы найдете новые Зарубежные сериалы и Русские сериалы 2013, 2014, 2015 годов. Оставайтесь с нами, качайте любимые фильмы, игры, сериалы, книги и музыку.