img image001 image001 image001 image001 image001 image001 image001 image001 image001 image001 image001 image001 image001 image001 image001

Planets Sun Sun Sun
Статистика раздачи
Автор: PriZraK | Размер: 1.35 ГБ | Добавлен: 19 ноя 2016
Раздают: 18    Качают: 4
Скачать торрент
Скачать торрент
Описание торрента

СообщениеДобавлено: 19 ноя 2016 


Спасти планету / Before the Flood
Страна: США
Производство: Appian Way, Insurgent Docs
Телеканал: National Geographic
Год выпуска: 2016
Жанр: документальный, новости
Продолжительность: 01:35:34
Режиссер: Фишер Стивенс
Автор сценария: Марк Монро
В ролях: Илон Маск, Пан Ги Мун, Леонардо ДиКаприо, Джон Керри, Скотт Эндрю Робертсон
Описание: Леонардо ДиКаприо, новый посол Мира ООН по проблемам климата, берётся за главную роль в своей жизни. Путешествуя от пустошей Гренландии к лесам Суматры и залам Ватикана, ДиКаприо изучает влияние климатических изменений на нашу планету. Он пользуется своими привилегиями, чтобы побеседовать с активистами, учёными и сильными мира сего, включая Барака Обаму, Илона Маска и Папу Франциска. Изучая проблему со всех сторон, Лео ищет ответ на вопрос: что мы можем сделать, пока не стало слишком поздно..?

Перевод: Профессиональный (одноголосый, закадровый) | Олег Федоров
Субтитры: нет

Качество: HDTVRip
Формат: AVI
Видео кодек: XviD
Аудио кодек: АС3
Видео: 704x400 (16:9), 25.000 fps, XviD ~1 816 kbps avg
Аудио: 48.0 kHz, AC3 Dolby Digital, 2/0 (L,R) ch, ~192 kbps
Дата премьеры (мир): 9 сентября 2016

General
Полное имя : Before.the.Flood.2016.HDTVRip.Rus.avi
Формат : AVI
Формат/Информация : Audio Video Interleave
Размер файла : 1,35 Гбайт
Продолжительность : 1 ч. 35 м.
Общий поток : 2017 Кбит/сек
Название фильма : Спасти планету / Before the Flood
Программа кодирования : VirtualDubMod 1.5.10.3 | (build 2550/release)
Видео
Идентификатор : 0
Формат : MPEG-4 Visual
Профиль формата : Advanced Simple@L5
Параметр BVOP формата : 1
Параметр QPel формата : Нет
Параметр GMC формата : Без точки перехода
Параметр матрицы формата : Выборочная
Идентификатор кодека : XVID
Идентификатор кодека/Подсказка : XviD
Продолжительность : 1 ч. 35 м.
Битрейт : 1816 Кбит/сек
Ширина : 704 пикселя
Высота : 400 пикселей
Соотношение сторон : 16:9
Частота кадров : 25,000 кадров/сек
Цветовое пространство : YUV
Субдискретизация насыщенности : 4:2:0
Битовая глубина : 8 бит
Тип развёртки : Прогрессивная
Метод сжатия : С потерями
Бит/(Пиксели*Кадры) : 0.258
Размер потока : 1,21 Гбайт (90%)
Библиотека кодирования : XviD 1.2.1 (UTC 2008-12-04)
Аудио
Идентификатор : 1
Формат : AC-3
Формат/Информация : Audio Coding 3
Расширение режима : CM (complete main)
Параметр Endianness формата : Big
Идентификатор кодека : 2000
Продолжительность : 1 ч. 35 м.
Вид битрейта : Постоянный
Битрейт : 192 Кбит/сек
Каналы : 2 канала
Расположение каналов : Front: L R
Частота : 48,0 КГц
Битовая глубина : 16 бит
Метод сжатия : С потерями
Размер потока : 131 Мбайт (10%)
Выравнивание : Разделение по промежуткам
Продолжительность промежутка : 40 мс. (1,00 видеокадр)
Время предзагрузки промежутка : 500 мс.



   Похожие торренты   Торрент   Размер 
В этой теме нет новых непрочитанных сообщений. Спасти планету / Before the Flood (2016) HDTVRip 720p | Р1

68 | 2

2.59 ГБ

В этой теме нет новых непрочитанных сообщений. Спасти планету / Before the Flood (2016) HDTV 1080i | Р1

38 | 1

4.99 ГБ

В этой теме нет новых непрочитанных сообщений. National Geographic. Спасти планету / Before the Flood (2016) WEBRip от ExKinoRay | D

39 | 4

1.37 ГБ

В этой теме нет новых непрочитанных сообщений. Спасти зеленую планету! / Jigureul jikyeora! (2003) DVDRip

2 | 1

1.21 ГБ

В этой теме нет новых непрочитанных сообщений. Спасти зеленую планету! / Save the green planet! (2003) DVDRip | L1

0 | 2

2.11 ГБ

В этой теме нет новых непрочитанных сообщений. The Flame in the Flood (2016) PC | Лицензия

2599 | 308

1.14 ГБ

В этой теме нет новых непрочитанных сообщений. The Flame in the Flood (2016) PC | Repack от R.G. Механики

318 | 20

1.02 ГБ




Вы не можете начинать темы
Вы не можете отвечать на сообщения
Вы не можете редактировать свои сообщения
Вы не можете удалять свои сообщения
Вы не можете добавлять вложения

Перейти:  
Для Мосгорсуда, Роскомнадзора и рекламодателей: mosgorsud-torrent[собачка]yandex.ru
 Вход
ppkBB3cker v.2 © 2008-2014 @ PPK
[ Time : 0.042s | 15 Queries | GZIP : Off ]

cron