img image001 image001 image001 image001 image001 image001 image001 image001 image001 image001 image001 image001 image001 image001 image001

Planets Sun Sun Sun
Статистика раздачи
Автор: PriZraK | Размер: 1.69 ГБ | Добавлен: 22 ноя 2016
Раздают: 65    Качают: 0
Скачать торрент
Скачать торрент
Описание торрента

СообщениеДобавлено: 22 ноя 2016 


Информация о фильме
Оригинальное название: Что? Где? Когда?
Год выпуска: 2016
Жанр: Интеллектуальное шоу
Выпущено: Россия, Продюсерский центр "ИГРА-ТВ"
Ведущий: Борис Крюк
О фильме: Интеллектуальная викторина, наиболее распространённая в русскоязычной среде. Была создана в 1975 г. телеведущим Владимиром Ворошиловым. Игра очень быстро стала настолько популярной, что кроме оригинальной телевизионной версии появилась спортивная версия игры. Сущность игры заключается в противостоянии команды Знатоков (игровой команды из шести человек) команде Телезрителей. Знатоки должны за одну минуту при помощи мозгового штурма найти ответ на вопрос, присланный телезрителем. Как правило, игрокам задаются вопросы, ответить на которые можно с помощью общих знаний и логики. За каждый правильный ответ команда Знатоков получает одно очко, в случае неверного ответа очко начисляется команде Телезрителей. Игра ведётся до шести очков.
Первая игра – 20 ноября. В ней примают участие обладатели приза «Хрустальный атом».
Cостав команды: Никита Баринов, Иван Марышев, Ия Метревели, Алексей Самулёв, Инна Семёнова. Капитан команды – Елена Александрова.

О файле
Качество: HDTVRip 720p
Видео: 1280x720 (16:9), 25 fps, MPEG-4 AVC ~3800 kbps avg, 0.165 bit/pixel
Аудио: 48 kHz, AC3, 2ch, ~192.00 kbps avg
Продолжительность: 1 х ~ 01:00:00
Общее
Уникальный идентификатор : 183378139599640831853551314891483399503 (0x89F558533CB186418EFB33DD8BD4454F)
Полное имя : Chto.Gde.Kogda.Zimnya serija.2016.HDTVRip (720p)Chto.Gde.Kogda.Zimnya serija.2016.HDTVRip (720p).mkv
Формат : Matroska
Версия формата : Version 4 / Version 2
Размер файла : 1,69 Гбайт
Продолжительность : 1 ч. 0 м.
Общий поток : 3993 Кбит/сек
Дата кодирования : UTC 2016-11-20 21:57:50
Программа кодирования : mkvmerge v8.3.0 ('Over the Horizon') 64bit
Библиотека кодирования : libebml v1.3.1 + libmatroska v1.4.2
DURATION : 01:00:41.024000000
NUMBER_OF_FRAMES : 113782
NUMBER_OF_BYTES : 87384576
_STATISTICS_WRITING_APP : mkvmerge v8.3.0 ('Over the Horizon') 64bit
_STATISTICS_WRITING_DATE_UTC : 2016-11-20 21:57:50
_STATISTICS_TAGS : BPS DURATION NUMBER_OF_FRAMES NUMBER_OF_BYTES
Видео
Идентификатор : 1
Формат : AVC
Формат/Информация : Advanced Video Codec
Профиль формата : High@L3.1
Параметр CABAC формата : Да
Параметр ReFrames формата : 4 кадра
Идентификатор кодека : V_MPEG4/ISO/AVC
Продолжительность : 1 ч. 0 м.
Битрейт : 3800 Кбит/сек
Ширина : 1280 пикселей
Высота : 720 пикселей
Соотношение сторон : 16:9
Режим частоты кадров : Постоянный
Частота кадров : 25,000 кадров/сек
Цветовое пространство : YUV
Субдискретизация насыщенности : 4:2:0
Битовая глубина : 8 бит
Тип развёртки : Прогрессивная
Бит/(Пиксели*Кадры) : 0.165
Размер потока : 1,58 Гбайт (93%)
Библиотека кодирования : x264 core 118
Настройки программы : cabac=1 / ref=3 / deblock=1:0:0 / analyse=0x3:0x133 / me=hex / subme=9 / psy=1 / psy_rd=1.00:0.00 / mixed_ref=1 / me_range=16 / chroma_me=1 / trellis=1 / 8x8dct=1 / cqm=0 / deadzone=21,11 / fast_pskip=1 / chroma_qp_offset=-2 / threads=36 / sliced_threads=0 / nr=0 / decimate=1 / interlaced=0 / bluray_compat=0 / constrained_intra=0 / bframes=3 / b_pyramid=2 / b_adapt=1 / b_bias=0 / direct=1 / weightb=1 / open_gop=0 / weightp=2 / keyint=25 / keyint_min=13 / scenecut=0 / intra_refresh=0 / rc_lookahead=25 / rc=abr / mbtree=0 / bitrate=3800 / ratetol=1.0 / qcomp=0.60 / qpmin=0 / qpmax=40 / qpstep=4 / vbv_maxrate=4500 / vbv_bufsize=3800 / nal_hrd=none / ip_ratio=1.40 / pb_ratio=1.30 / aq=1:1.00
Default : Да
Forced : Нет
Аудио
Идентификатор : 2
Формат : AC-3
Формат/Информация : Audio Coding 3
Расширение режима : CM (complete main)
Параметр Endianness формата : Big
Идентификатор кодека : A_AC3
Продолжительность : 1 ч. 0 м.
Вид битрейта : Постоянный
Битрейт : 192 Кбит/сек
Каналы : 2 канала
Расположение каналов : Front: L R
Частота : 48,0 КГц
Метод сжатия : С потерями
Размер потока : 83,3 Мбайт (5%)
Default : Да
Forced : Нет



   Похожие торренты   Торрент   Размер 
В этой теме нет новых непрочитанных сообщений. Что? Где? Когда? Зимняя серия игр [01-02 из 05] (2016) HDTVRip 720p

93 | 50

3.13 ГБ

В этой теме нет новых непрочитанных сообщений. Что? Где? Когда? Зимняя серия игр [01 из 05] (2016) HDTVRip

39 | 0

868.61 МБ

В этой теме нет новых непрочитанных сообщений. Что? Где? Когда? Зимняя серия игр [01-02 из 05] (2016) HDTVRip

78 | 28

1.57 ГБ

В этой теме нет новых непрочитанных сообщений. Что? Где? Когда? Зимняя серия. Игра вторая [Эфир 27.11] (2016) HDTVRip от GeneralFilm

142 | 2

746.53 МБ

В этой теме нет новых непрочитанных сообщений. Что? Где? Когда? Зимняя серия [Игра 01-05] (2013) HDTVRip от MediaClub

11 | 4

4.64 ГБ

В этой теме нет новых непрочитанных сообщений. Что? Где? Когда? Зимняя серия. Игра третья [эфир 13.12] HDTVRip от MediaClub

1096 | 112

916.78 МБ

В этой теме нет новых непрочитанных сообщений. Что? Где? Когда? Зимняя серия игр. Игра вторая [Эфир 05.12] (2015) HDTVRip от GeneralFilm

914 | 148

938.08 МБ




Вы не можете начинать темы
Вы не можете отвечать на сообщения
Вы не можете редактировать свои сообщения
Вы не можете удалять свои сообщения
Вы не можете добавлять вложения

Перейти:  
Для Мосгорсуда, Роскомнадзора и рекламодателей: mosgorsud-torrent[собачка]yandex.ru
 Вход
ppkBB3cker v.2 © 2008-2014 @ PPK
[ Time : 0.030s | 14 Queries | GZIP : Off ]

Торрент трекер RUTOR.IN, Не можете зайти на rutor.org? Какой новый адрес рутор? Какое зеркало рутор? Не работает rutor.org и зеркала? Тогда наш торрент специально для вас. Rutor.in неофициальное зеркало rutor. В случае если у Вас заблокирован rutor или вдруг Вы не можете на него зайти, то Вы без труда сможете скачать бесплатно и без рекламы последние новинки кино, игр, сериалов и прочего у нас, на Rutor.in. Не нужно использовать прокси, чтобы зайти на рутор, достаточно воспользоваться нашим ресурсом. Все новые фильмы, игры, сериалы, книги и музыка за 2013 и 2014 годы через торрент бесплатно. Скачивайте фильмы в хорошем качестве, игры для пк, xbox, playstation без регистрации. У нас вы найдете новые Зарубежные сериалы и Русские сериалы 2013, 2014, 2015 годов. Оставайтесь с нами, качайте любимые фильмы, игры, сериалы, книги и музыку.