img image001 image001 image001 image001 image001 image001 image001 image001 image001 image001 image001 image001 image001 image001 image001

Planets Sun Sun Sun
Статистика раздачи
Автор: PriZraK | Размер: 3.01 ГБ | Добавлен: 23 ноя 2016
Раздают: 20    Качают: 0
Скачать торрент
Скачать торрент
Описание торрента

СообщениеДобавлено: 23 ноя 2016 


Украина в огне / Ukraine on Fire
Страна: США
Производство: Another Way Productions
Год выпуска: 2016
Жанр: документальный
Продолжительность: 01:35:46
Режиссеры: Оливер Стоун, Игорь Лопатенок, Бен Байуотер
Авторы сценария: Ванесса Дин, Томас Рейд
В ролях: Арина Беланова, Евгений Чернов, Владислав Чигрин, Ирина Дрон, Дмитрий Дума, Никита Гончаров, София Кисткина, Алексей Макеев
Описание: Документальный фильм американского кинорежиссера Оливера Стоуна "Украина в огне" расскажет об истории Украины в период с 1941 по 2014 год. Зритель увидит материалы о националистических движениях, которые существовали во времена Второй мировой войны и участвовали вместе с нацистами в массовых убийствах евреев и поляков, затем поддерживались ЦРУ во времена "холодной войны”, а затем повлияли на мирные манифестации последних лет. Показаны материалы, снятые на киевском Майдане в феврале 2014 года, когда на Украине произошёл государственный переворот...

Перевод: Профессиональный (двухголосый, закадровый) | Рен ТВ
Субтитры: нет

Качество: HDTV 1080i
Формат: MPEG-TS
Видео кодек: AVC
Аудио кодек: AAC
Видео: 1920x1080 (16:9), 25.000 fps, MPEG-TS AVC ~4 085 kbps avg
Аудио: 48.0 kHz, Advanced Audio Codec LC, 2/0 (L,R) ch, ~192 kbps | RUS
Дата премьеры (мир): 16 июня 2016
Дата премьеры (РФ): 21 ноября 2016

Формат : MPEG-TS
Размер файла : 3,01 Гбайт
Продолжительность : 1 ч. 35 м.
Режим общего битрейта : Переменный
Общий поток : 4502 Кбит/сек
Видео
Идентификатор : 101 (0x65)
Идентификатор меню : 1 (0x1)
Формат : AVC
Формат/Информация : Advanced Video Codec
Профиль формата : High@L4.0
Параметр CABAC формата : Да
Параметр ReFrames формата : 4 кадра
Идентификатор кодека : 27
Продолжительность : 1 ч. 35 м.
Вид битрейта : Переменный
Битрейт : 4085 Кбит/сек
Максимальный битрейт : 4500 Кбит/сек
Ширина : 1920 пикселей
Высота : 1080 пикселей
Соотношение сторон : 16:9
Частота кадров : 25,000 кадров/сек
Цветовое пространство : YUV
Субдискретизация насыщенности : 4:2:0
Битовая глубина : 8 бит
Тип развёртки : Прогрессивная
Бит/(Пиксели*Кадры) : 0.079
Размер потока : 2,73 Гбайт (91%)
Аудио
Идентификатор : 110 (0x6E)
Идентификатор меню : 1 (0x1)
Формат : AAC
Формат/Информация : Advanced Audio Codec
Версия формата : Version 4
Профиль формата : LC
Режим смешивания : ADTS
Идентификатор кодека : 15
Продолжительность : 1 ч. 35 м.
Вид битрейта : Переменный
Битрейт : 192 Кбит/сек
Каналы : 2 канала
Расположение каналов : Front: L R
Частота : 48,0 КГц
Метод сжатия : С потерями
Размер потока : 132 Мбайт (4%)



   Похожие торренты   Торрент   Размер 
В этой теме нет новых непрочитанных сообщений. Украина в огне / Ukraine on Fire (2016) HDTVRip-AVC | Р2

20 | 0

1.13 ГБ

В этой теме нет новых непрочитанных сообщений. Украина в огне / Ukraine on Fire (2016) HDTVRip 720p | Р2

14 | 0

2.81 ГБ

В этой теме нет новых непрочитанных сообщений. Сорняки в огне / Weeds on Fire / Dim ng bo (2016) HDRip | L

30 | 6

1.37 ГБ

В этой теме нет новых непрочитанных сообщений. Разум в огне / Brain on Fire (2016) WEB-DLRip от ImperiaFilm | КПК | L

45 | 0

402.34 МБ

В этой теме нет новых непрочитанных сообщений. Разум в огне / Brain on Fire (2016) WEB-DLRip-AVC от ImperiaFilm | L

371 | 3

742.53 МБ

В этой теме нет новых непрочитанных сообщений. Зима в огне (Палаюча зима) / Winter On Fire (2015) HDTV 1080p

33 | 5

9.71 ГБ

В этой теме нет новых непрочитанных сообщений. Футбол. Чемпионат Европы 2016. Группа C. 2-й тур. Украина - Северная Ирландия [Матч! ТВ] [16.06] (2016) HDTV 1080i

18 | 8

11.63 ГБ




Вы не можете начинать темы
Вы не можете отвечать на сообщения
Вы не можете редактировать свои сообщения
Вы не можете удалять свои сообщения
Вы не можете добавлять вложения

Перейти:  
Для Мосгорсуда, Роскомнадзора и рекламодателей: mosgorsud-torrent[собачка]yandex.ru
 Вход
ppkBB3cker v.2 © 2008-2014 @ PPK
[ Time : 0.050s | 15 Queries | GZIP : Off ]

cron