img image001 image001 image001 image001 image001 image001 image001 image001 image001 image001 image001 image001 image001 image001 image001

Planets Sun Sun Sun
Статистика раздачи
Автор: PriZraK | Размер: 1.13 ГБ | Добавлен: 23 ноя 2016
Раздают: 453    Качают: 48
Скачать торрент
Скачать торрент
Описание торрента

СообщениеДобавлено: 23 ноя 2016 


Украина в огне / Ukraine on Fire
Страна: США
Производство: Another Way Productions
Год выпуска: 2016
Жанр: документальный
Продолжительность: 01:35:46
Режиссеры: Игорь Лопатенок, Бен Байуотер
Авторы сценария: Ванесса Дин, Томас Рейд
Продюсер: Оливер Стоун
В ролях: Арина Беланова, Евгений Чернов, Владислав Чигрин, Ирина Дрон, Дмитрий Дума, Никита Гончаров, София Кисткина, Алексей Макеев
Описание: Документальный фильм американского кинорежиссера Оливера Стоуна "Украина в огне" расскажет об истории Украины в период с 1941 по 2014 год. Зритель увидит материалы о националистических движениях, которые существовали во времена Второй мировой войны и участвовали вместе с нацистами в массовых убийствах евреев и поляков, затем поддерживались ЦРУ во времена "холодной войны”, а затем повлияли на мирные манифестации последних лет. Показаны материалы, снятые на киевском Майдане в феврале 2014 года, когда на Украине произошёл государственный переворот...

Перевод: Профессиональный (двухголосый, закадровый) | Рен ТВ
Субтитры: нет

Качество: HDTVRip-AVC
Формат: MKV
Видео кодек: AVC
Аудио кодек: AС3
Видео: 10240x464 (2.2:1), 25.000 fps, MPEG-4 AVC ~1 500 kbps avg
Аудио: 48.0 kHz, AC3 Dolby Digital, 2/0 (L,R) ch, ~192 kbps
Дата премьеры (мир): 16 июня 2016
Дата премьеры (РФ): 21 ноября 2016

Unique ID : 181455239750359174322661718451446430468 (0x8883020AFC2A992EAC0C46570B513B04)
Complete name : Ukraine.on.Fire.2016.HDTVRip-AVC.x264-lrn.mkv
Format : Matroska
Format version : Version 4 / Version 2
File size : 1.13 GiB
Duration : 1 h 35 min
Overall bit rate : 1 693 kb/s
Movie name : Ukraine.on.Fire.2016.HDTVRip-AVC.x264-lrn
Encoded date : UTC 2010-02-22 21:41:31
Writing application : mkvmerge v5.9.0 ('On The Loose') built on Dec 9 2012 15:37:01
Writing library : libebml v1.3.0 + libmatroska v1.4.0
Video
ID : 1
Format : AVC
Format/Info : Advanced Video Codec
Format profile : High@L4.1
Format settings, CABAC : Yes
Format settings, ReFrames : 8 frames
Codec ID : V_MPEG4/ISO/AVC
Duration : 1 h 35 min
Bit rate : 1 500 kb/s
Width : 1 024 pixels
Height : 464 pixels
Display aspect ratio : 2.2:1
Frame rate mode : Constant
Frame rate : 25.000 FPS
Color space : YUV
Chroma subsampling : 4:2:0
Bit depth : 8 bits
Scan type : Progressive
Bits/(Pixel*Frame) : 0.126
Stream size : 1 005 MiB (87%)
Writing library : x264 core 148 r2638 7599210
Encoding settings : cabac=1 / ref=8 / deblock=1:-3:-3 / analyse=0x3:0x133 / me=umh / subme=9 / psy=1 / psy_rd=1.00:0.00 / mixed_ref=1 / me_range=32 / chroma_me=1 / trellis=2 / 8x8dct=1 / cqm=0 / deadzone=21,11 / fast_pskip=1 / chroma_qp_offset=-2 / threads=12 / lookahead_threads=2 / sliced_threads=0 / nr=0 / decimate=1 / interlaced=0 / bluray_compat=0 / constrained_intra=0 / bframes=8 / b_pyramid=2 / b_adapt=2 / b_bias=0 / direct=3 / weightb=1 / open_gop=0 / weightp=2 / keyint=250 / keyint_min=25 / scenecut=40 / intra_refresh=0 / rc_lookahead=50 / rc=2pass / mbtree=1 / bitrate=1500 / ratetol=1.0 / qcomp=0.60 / qpmin=0 / qpmax=69 / qpstep=4 / cplxblur=20.0 / qblur=0.5 / vbv_maxrate=62500 / vbv_bufsize=78125 / nal_hrd=none / filler=0 / ip_ratio=1.40 / aq=1:1.00
Default : Yes
Forced : No
Statistics Tags Issue : mkvmerge v8.5.2 ('Crosses') 32bit 2016-11-21 20:00:28 / mkvmerge v5.9.0 ('On The Loose') built on Dec 9 2012 15:37:01 2010-02-22 21:41:31
FromStats_BitRate : 1499235
FromStats_Duration : 01:35:46.680000000
FromStats_FrameCount : 143667
FromStats_StreamSize : 1076953478
Audio
ID : 2
Format : AC-3
Format/Info : Audio Coding 3
Mode extension : CM (complete main)
Format settings, Endianness : Big
Codec ID : A_AC3
Duration : 1 h 35 min
Bit rate mode : Constant
Bit rate : 192 kb/s
Channel(s) : 2 channels
Channel positions : Front: L R
Sampling rate : 48.0 kHz
Frame rate : 31.250 FPS (1536 spf)
Bit depth : 16 bits
Compression mode : Lossy
Stream size : 132 MiB (11%)
Language : Russian
Default : Yes
Forced : No



   Похожие торренты   Торрент   Размер 
В этой теме нет новых непрочитанных сообщений. Украина в огне / Ukraine on Fire (2016) HDTVRip 720p | Р2

85 | 8

2.81 ГБ

В этой теме нет новых непрочитанных сообщений. Украина в огне / Ukraine on Fire (2016) HDTV 1080i | Р2

212 | 12

3.01 ГБ

В этой теме нет новых непрочитанных сообщений. Зима в огне / Winter On Fire (Евгений Афинеевский) [2015, документальный, HDTVRip] EN, UA, RU

344 | 25

1.3 ГБ

В этой теме нет новых непрочитанных сообщений. Пожарные Чикаго / Чикаго в огне / Chicago Fire [03x01-21] (2014-2015) HDTVRip 720p

164 | 69

23.46 ГБ

В этой теме нет новых непрочитанных сообщений. Пожарные Чикаго / Чикаго в Огне / Chicago Fire [05х01] (2016) WEB-DLRip от MegaPeer | По версии Шадинского

66 | 7

614.37 МБ

В этой теме нет новых непрочитанных сообщений. Т-72: Балканы в огне / T-72: Balkans on Fire (2007) PC

814 | 46

1.01 ГБ

В этой теме нет новых непрочитанных сообщений. Необстрелянные / 71: В огне / 71: Into the Fire / Pohwasogeuro (2010) HDRip | P2

4 | 2

1.46 ГБ




Вы не можете начинать темы
Вы не можете отвечать на сообщения
Вы не можете редактировать свои сообщения
Вы не можете удалять свои сообщения
Вы не можете добавлять вложения

Перейти:  
Для Мосгорсуда, Роскомнадзора и рекламодателей: mosgorsud-torrent[собачка]yandex.ru
 Вход
ppkBB3cker v.2 © 2008-2014 @ PPK
[ Time : 1.976s | 14 Queries | GZIP : Off ]

Торрент трекер RUTOR.IN, Не можете зайти на rutor.org? Какой новый адрес рутор? Какое зеркало рутор? Не работает rutor.org и зеркала? Тогда наш торрент специально для вас. Rutor.in неофициальное зеркало rutor. В случае если у Вас заблокирован rutor или вдруг Вы не можете на него зайти, то Вы без труда сможете скачать бесплатно и без рекламы последние новинки кино, игр, сериалов и прочего у нас, на Rutor.in. Не нужно использовать прокси, чтобы зайти на рутор, достаточно воспользоваться нашим ресурсом. Все новые фильмы, игры, сериалы, книги и музыка за 2013 и 2014 годы через торрент бесплатно. Скачивайте фильмы в хорошем качестве, игры для пк, xbox, playstation без регистрации. У нас вы найдете новые Зарубежные сериалы и Русские сериалы 2013, 2014, 2015 годов. Оставайтесь с нами, качайте любимые фильмы, игры, сериалы, книги и музыку.