img image001 image001 image001 image001 image001 image001 image001 image001 image001 image001 image001 image001 image001 image001 image001

Planets Sun Sun Sun
Статистика раздачи
Автор: Nickolas3434 | Размер: 494.68 МБ | Добавлен: 27 ноя 2016
Раздают: 14    Качают: 0
Скачать торрент
Скачать торрент
Описание торрента

СообщениеДобавлено: 27 ноя 2016 


Информация о фильме
Название: Остап Бендер. История прототипа
Год выхода: 1999
Жанр: Документальный
Режиссер: Сергей Русаков
О фильме:
Фильм рассказывает о поисках авторами романа «12 стульев» И.Ильфом и Е.Петровым прототипов своих героев…
Одним из реальных персонажей, вдохновивших писателей на создание образа Остапа Бендера, считается друг писателей Остапа Шора…
Доп. информация: Запись потока *.ts с наземного цифрового телеканала "Беларусь 3".
Благодарность: за помощь с недостающим материалом Bartimeyse и PavelDAS. Обоим большое спасибо!
Страна: Россия
Продолжительность: 00:26:07
Перевод: не требует
Файл
Кодек: AVC (H264)
Качество: DVB
Видео: MPEG4 Video (H264) 720(785)x576 (49:36) 25fps, 2 258 kb/s
Звук: MPEG Audio 48000Hz stereo 256kbps
Семпл
Код:
General
ID                             : 1 (0x1)
Complete name                  : D:Новая  земля 2\001 Документальный фильмыЛичностиОстап Бендер. История прототипа (1999)Остап Бендер. История прототипа (1999).ts
Format                         : MPEG-TS
File size                      : 495 MiB
Duration                       : 26 min
Overall bit rate mode          : Variable
Overall bit rate               : 2 647 kb/s
Video
ID                             : 801 (0x321)
Menu ID                        : 1 (0x1)
Format                         : AVC
Format/Info                    : Advanced Video Codec
Format profile                 : Main@L3
Format settings, CABAC         : Yes
Format settings, ReFrames      : 4 frames
Format settings, GOP           : M=4, N=24
Codec ID                       : 27
Duration                       : 26 min
Bit rate                       : 2 258 kb/s
Width                          : 720 pixels
Height                         : 576 pixels
Display aspect ratio           : 4:3
Frame rate                     : 25.000 FPS
Standard                       : PAL
Color space                    : YUV
Chroma subsampling             : 4:2:0
Bit depth                      : 8 bits
Scan type                      : MBAFF
Scan type, store method        : Separated fields
Scan order                     : Top Field First
Bits/(Pixel*Frame)             : 0.218
Stream size                    : 422 MiB (85%)
Color range                    : Limited
Color primaries                : BT.601 PAL
Transfer characteristics       : BT.470 System B, BT.470 System G
Matrix coefficients            : BT.601
Audio
ID                             : 802 (0x322)
Menu ID                        : 1 (0x1)
Format                         : MPEG Audio
Format version                 : Version 1
Format profile                 : Layer 2
Codec ID                       : 3
Duration                       : 26 min
Bit rate mode                  : Constant
Bit rate                       : 256 kb/s
Channel(s)                     : 2 channels
Sampling rate                  : 48.0 kHz
Compression mode               : Lossy
Stream size                    : 47.8 MiB (10%)
Language                       : English
 




   Похожие торренты   Торрент   Размер 
В этой теме нет новых непрочитанных сообщений. Прототипы. Остап Бендер. Осип Шор (2013) SATRip от MediaClub

0 | 2

362.4 МБ

В этой теме нет новых непрочитанных сообщений. Прототипы. Остап Бендер. Дело Хасанова (2013) SATRip от MediaClub

0 | 3

364.79 МБ

В этой теме нет новых непрочитанных сообщений. Славянский базар 1999. Антология (1999) DVB от AND03AND

17 | 5

988.37 МБ

В этой теме нет новых непрочитанных сообщений. История одного города… (2008) SATRip от AND03AND

12 | 4

339.71 МБ

В этой теме нет новых непрочитанных сообщений. Инна Афанасьева. История моей любви... (2012) DVB от AND03AND

3 | 3

1.58 ГБ

В этой теме нет новых непрочитанных сообщений. Спектакль - Чайка (1999) DVB от AND03AND

19 | 34

3.4 ГБ

В этой теме нет новых непрочитанных сообщений. Рейнджер из атомной зоны (1999) DVB от AND03AND

34 | 5

1.45 ГБ




Вы не можете начинать темы
Вы не можете отвечать на сообщения
Вы не можете редактировать свои сообщения
Вы не можете удалять свои сообщения
Вы не можете добавлять вложения

Перейти:  
Для Мосгорсуда, Роскомнадзора и рекламодателей: mosgorsud-torrent[собачка]yandex.ru
 Вход
ppkBB3cker v.2 © 2008-2014 @ PPK
[ Time : 6.977s | 13 Queries | GZIP : Off ]
CGP output time : 0.030s | 5 Queries | GZIP : Off

Торрент трекер RUTOR.IN, Не можете зайти на rutor.org? Какой новый адрес рутор? Какое зеркало рутор? Не работает rutor.org и зеркала? Тогда наш торрент специально для вас. Rutor.in неофициальное зеркало rutor. В случае если у Вас заблокирован rutor или вдруг Вы не можете на него зайти, то Вы без труда сможете скачать бесплатно и без рекламы последние новинки кино, игр, сериалов и прочего у нас, на Rutor.in. Не нужно использовать прокси, чтобы зайти на рутор, достаточно воспользоваться нашим ресурсом. Все новые фильмы, игры, сериалы, книги и музыка за 2013 и 2014 годы через торрент бесплатно. Скачивайте фильмы в хорошем качестве, игры для пк, xbox, playstation без регистрации. У нас вы найдете новые Зарубежные сериалы и Русские сериалы 2013, 2014, 2015 годов. Оставайтесь с нами, качайте любимые фильмы, игры, сериалы, книги и музыку.