img image001 image001 image001 image001 image001 image001 image001 image001 image001 image001 image001 image001 image001 image001 image001

Planets Sun Sun Sun
Статистика раздачи
Автор: PriZraK | Размер: 1.21 ГБ | Добавлен: 30 ноя 2016
Раздают: 14    Качают: 0
Скачать торрент
Скачать торрент
Описание торрента

СообщениеДобавлено: 30 ноя 2016 


Дата/Год выпуска: 2010
Страна: Россия
Жанр: документальный
Продолжительность: 00:51:46
Перевод: Не требуется
Русские субтитры: нет
Оригинальная аудиодорожка: русский
Режиссер: Наталья Завозненко
Телеканал: "Мирэда" по заказу Первого канала , 2010
Описание:
"Пластилиновая ворона", "Падал прошлогодний снег", "Крылья, ноги и хвосты", "Следствие ведут Колобки", "Обратная сторона луны" - такие знакомые и любимые сегодня мультфильмы когда-то вызывали у властей бурю протеста и негодования
За новаторство, за непохожесть на традиционную советскую мультипликацию, за пренебрежительное отношение к традициям. Судьба каждой картины была непростой, как, впрочем, и судьба самого автора - художника-аниматора Александра Татарского.
Когда-то в конце 80-х для изготовления своего первого мультика "Кстати, о птичках" начинающий художник Саша Татарский в соавторстве с другом Сергеем Ковалевым смастерили мультстанок из списанного рентгеновского аппарата и старой железной кровати. В те годы молодых специалистов принято было долго держать в "подмастерьях", прежде чем допустить к серьезной самостоятельной работе. Но наши герои не намерены были ждать. Слава, признание, призы нужны им были незамедлительно. А еще мучила сильнейшая жажда самовыражения...
Тогда и возникла идея создания своей творческой базы. Так в 1989 году в стране появилась первая независимая анимационная студия "Пилот" - детище Александра Татарского. А с ней и первые пластилиновые шедевры, грандиозные анимационные проекты, как "Гора самоцветов", и первые ученики новой школы анимации, чьи работы будут признаны во всем мире. А в непростые 90-е, когда денег на мультфильмы у государства уже не было, студия "Пилот" помогла сохранить и поддержать престиж российского анимационного кино в нашей стране и за рубежом.
Несмотря на то, что отец Саши – Михаил Семенович Татарский – сценарист, писавший цирковые репризы для Юрия Никулина и Михаила Шуйдина, Саша цирком так и "не заболел". Не мечтал он и о карьере художника – страстно любил футбол. Детство Саши прошло в Киеве, мальчишкой он гонял мяч во дворе, влюблялся – и девушки отвечали ему взаимностью. Но мечты о профессиональном спорте разбились в одночасье о диагноз врача, а девушки превращались в жен, сменяя друг друга...
Александр Татарский был удивительно разносторонним человеком. Он коллекционировал старинные автомобили и предметы советского быта. Он собрал самую богатую в России коллекцию Дедов Морозов. Он прославился в киномире как мастер розыгрышей и мистификаций. Он построил – по собственному проекту - себе и своим детям совершенно необычный дом, напоминающий причудливые сказочные терема из его неподражаемых мультфильмов …
Своими воспоминаниями делятся ученики, коллеги и близкие Александра Татарского: Игорь Ковалев, Андрей Свислоцкий, Евгений Делюсин, Валентин Телегин, Владлен Барбэ, Эдуард Назаров, Эдуард Успенский, Григорий Гладков, отец Владислав, Михаил Вагин, подруга юности Александра Татарского Вика Чекалкина, его бывшая жена Екатерина Татарская и его вдова Алина Татарская.
В фильм вошли фрагменты из лучших работ Александра Татарского: "Кстати о птичках", "Пластилиновая ворона", "Падал прошлогодний снег", "Следствие ведут Колобки", "Обратная сторона луны", "Берегите хлеб!", "Крылья, ноги и хвосты", "Автогонки", "Кубик-рубик, клоунада", "Лифт", "Красные ворота Расемон", "Гора самоцветов",
В фильме использована уникальная кинохроника из личных архивов друзей и родных Александра Татарского.
Качество: IPTVRip
Формат: MPG
Видео: MPEG-PS, PAL, 704x576@1024x576, 25 fps, ~3000 kbps
Аудио: MPEG-2, 2/0 ch, 192 kbps
Код:
General
Complete name                    : Повелитель пластилиновых ворон Александр Татарский.mpg
Format                           : MPEG-PS
File size                        : 1.21 GiB
Duration                         : 51mn 46s
Overall bit rate mode            : Variable
Overall bit rate                 : 3 357 Kbps
Writing library                  : (c) 1998-2009 Womble Multimedia, Inc. / MPEG Video Wizard (03/2009) / Jun 24 2009
Video
ID                               : 224 (0xE0)
Format                           : MPEG Video
Format version                   : Version 2
Format profile                   : Main@Main
Format settings, BVOP            : Yes
Format settings, Matrix          : Custom
Duration                         : 51mn 46s
Bit rate mode                    : Variable
Bit rate                         : 3 098 Kbps
Maximum bit rate                 : 15.0 Mbps
Width                            : 704 pixels
Height                           : 576 pixels
Display aspect ratio             : 16:9
Frame rate                       : 25.000 fps
Standard                         : PAL
Color space                      : YUV
Chroma subsampling               : 4:2:0
Bit depth                        : 8 bits
Scan type                        : Interlaced
Scan order                       : Top Field First
Compression mode                 : Lossy
Bits/(Pixel*Frame)               : 0.306
Stream size                      : 1.12 GiB (92%)
Writing library                  : (c) 1998-2009 Womble Multimedia, Inc. / MPEG Video Wizard (03/2009) / Jun 24 2009
Audio
ID                               : 192 (0xC0)
Format                           : MPEG Audio
Format version                   : Version 1
Format profile                   : Layer 2
Duration                         : 51mn 46s
Bit rate mode                    : Constant
Bit rate                         : 192 Kbps
Channel(s)                       : 2 channels
Sampling rate                    : 48.0 KHz
Compression mode                 : Lossy
Delay relative to video          : -40ms
Stream size                      : 71.1 MiB (6%)
 




   Похожие торренты   Торрент   Размер 
В этой теме нет новых непрочитанных сообщений. Ворон / The Raven (2010) HDRip 1080p | Sub

48 | 3

142.06 МБ

В этой теме нет новых непрочитанных сообщений. Ворон / The Raven (2010) HDRip от GalVid-Group

4 | 4

104.41 МБ

В этой теме нет новых непрочитанных сообщений. Ворон / THE RAVEN (2010) WEBRip 720p | Точка Zрения

10 | 5

62.8 МБ

В этой теме нет новых непрочитанных сообщений. Александр Великий / Alexander der Große (2014) IPTVRip от Pshichko66

15 | 0

1.36 ГБ

В этой теме нет новых непрочитанных сообщений. Отряд «Ворон» / Raven Squad: Operation Hidden Dagger (2010) PC от R.G. Origins

6 | 3

1.55 ГБ

В этой теме нет новых непрочитанных сообщений. Отряд «Ворон» / Raven Squad: Operation Hidden Dagger (2010) PC | RePack от Spieler

12 | 3

786.65 МБ

В этой теме нет новых непрочитанных сообщений. Александр Домогаров. Исповедь одинокого мужчины (2012) IPTVRip от ExKinoRay

0 | 3

617.71 МБ




Вы не можете начинать темы
Вы не можете отвечать на сообщения
Вы не можете редактировать свои сообщения
Вы не можете удалять свои сообщения
Вы не можете добавлять вложения

Перейти:  
Для Мосгорсуда, Роскомнадзора и рекламодателей: mosgorsud-torrent[собачка]yandex.ru
 Вход
ppkBB3cker v.2 © 2008-2014 @ PPK
[ Time : 0.021s | 14 Queries | GZIP : On ]

Торрент трекер RUTOR.IN, Не можете зайти на rutor.org? Какой новый адрес рутор? Какое зеркало рутор? Не работает rutor.org и зеркала? Тогда наш торрент специально для вас. Rutor.in неофициальное зеркало rutor. В случае если у Вас заблокирован rutor или вдруг Вы не можете на него зайти, то Вы без труда сможете скачать бесплатно и без рекламы последние новинки кино, игр, сериалов и прочего у нас, на Rutor.in. Не нужно использовать прокси, чтобы зайти на рутор, достаточно воспользоваться нашим ресурсом. Все новые фильмы, игры, сериалы, книги и музыка за 2013 и 2014 годы через торрент бесплатно. Скачивайте фильмы в хорошем качестве, игры для пк, xbox, playstation без регистрации. У нас вы найдете новые Зарубежные сериалы и Русские сериалы 2013, 2014, 2015 годов. Оставайтесь с нами, качайте любимые фильмы, игры, сериалы, книги и музыку.