img image001 image001 image001 image001 image001 image001 image001 image001 image001 image001 image001 image001 image001 image001 image001

Planets Sun Sun Sun

COVID-19 - Последняя информация о коронавирусе на сайте Минздрава


Статистика раздачи
Автор: PriZraK | Размер: 1.47 ГБ | Добавлен: 23 дек 2016
Раздают: 1    Качают: 0
Скачать торрент
Скачать торрент
Описание торрента

СообщениеДобавлено: 23 дек 2016 

Информация о фильме
Название: Наполеон: Русская кампания 1812 года
Оригинальное название: Napoleon: the Russian campaign
Год выпуска: 2013
Страна: Франция
Жанр: Документальный, постановочный, историческая реконструкция

Перевод: Профессиональный (одноголосый) SD Медия
Продолжительность: 2 x ~ 00:50:00

Режиссер: Фабрис Урлье


Описание:
Мечты Наполеона войти в Москву с триумфом быстро развеялись, когда 14 сентября 1812 он оказался в пустом городе, спаленном пожаром. В 1812 году Наполеон собирает 600-тысячную армию, состоящую из 24 различных национальностей. Вопреки предупреждениям своих советников, уверенный в победе император идет на Москву. По прошествии 172 дней, Наполеон отступает, оставляя позади 400 тысяч человек пленёнными, ранеными и убитыми. Этот фильм попытается ответить на вопрос: почему Наполеон решил завоевать Россию? И как такой великий полководец допустил столько стратегических ошибок? В фильме также рассказывается о том, каким Наполеона видела его армия, русские и монархи других государств.

Рейтинг:


Качество: HDTVRip
Формат: AVI
Видео: 720x368 (1.96:1), 25 fps, XviD build 65 ~1829 kbps avg, 0.28 bit/pixel
Аудио №1: русский, 48 kHz, AC3 Dolby Digital, 2/0 (L,R) ch, ~192.00 kbps avg


Релиз от: ruslanishe



General
Complete name : Napoleon.russkaya.kampaniya.1812.goda.XviD.2013.HDTVRip.R.G.Resident\001.avi
Format : AVI
Format/Info : Audio Video Interleave
File size : 750 MiB
Duration : 51mn 37s
Overall bit rate : 2 032 Kbps
Director : ruslanishe
Writing application : VirtualDubMod 1.5.10.3 | www.virtualdub-fr.org || (build 2550/release)
Video
ID : 0
Format : MPEG-4 Visual
Format profile : Advanced Simple@L5
Format settings, BVOP : 2
Format settings, QPel : No
Format settings, GMC : No warppoints
Format settings, Matrix : Custom
Codec ID : XVID
Codec ID/Hint : XviD
Duration : 51mn 37s
Bit rate : 1 830 Kbps
Width : 720 pixels
Height : 368 pixels
Display aspect ratio : 1.957
Frame rate : 25.000 fps
Color space : YUV
Chroma subsampling : 4:2:0
Bit depth : 8 bits
Scan type : Progressive
Compression mode : Lossy
Bits/(Pixel*Frame) : 0.276
Stream size : 676 MiB (90%)
Writing library : XviD 65
Audio
ID : 1
Format : AC-3
Format/Info : Audio Coding 3
Mode extension : CM (complete main)
Format settings, Endianness : Big
Codec ID : 2000
Duration : 51mn 37s
Bit rate mode : Constant
Bit rate : 192 Kbps
Channel(s) : 2 channels
Channel positions : Front: L R
Sampling rate : 48.0 KHz
Bit depth : 16 bits
Compression mode : Lossy
Stream size : 70.9 MiB (9%)
Alignment : Split accross interleaves
Interleave, duration : 40 ms (1.00 video frame)
Interleave, preload duration : 500 ms

   Похожие торренты   Торрент   Размер 
В этой теме нет новых непрочитанных сообщений. Наполеон: Египетская кампания / Bonaparte: La Campagne d'Egypte [01 из 02] (2017) HDTVRip | Р1

12 | 0

762.68 МБ

В этой теме нет новых непрочитанных сообщений. Наполеон: Египетская кампания / Bonaparte: La Campagne d'Egypte [01-02 из 02] (2017) HDTVRip | Р1

38 | 0

1.5 ГБ

В этой теме нет новых непрочитанных сообщений. Наполеон: Египетская кампания / Bonaparte: La Campagne d'Egypte [01-02 из 02] (2017) HDTVRip 720р | Р1

16 | 0

2.63 ГБ

В этой теме нет новых непрочитанных сообщений. Наполеон: Египетская кампания / Bonaparte: La Campagne d'Egypte [01 из 02] (2017) HDTVRip 720р | Р1

72 | 0

1.31 ГБ

В этой теме нет новых непрочитанных сообщений. Наполеон: Египетская кампания / Bonaparte: La Campagne d'Egypte [01 из 02] (2017) HDTVRip 1080р | Р1

18 | 0

1.66 ГБ

В этой теме нет новых непрочитанных сообщений. Наполеон: Египетская кампания / Bonaparte: La Campagne d'Egypte [01-02 из 02] (2017) HDTVRip 1080р | Р1

29 | 7

3.35 ГБ

В этой теме нет новых непрочитанных сообщений. Восточная Пруссия Гитлера / Hitler's East Prussia [01-02 из 02] (2008) HDTVRip AVC от R.G.Resident | SD Медия

4 | 1

1.47 ГБ




Вы не можете начинать темы
Вы не можете отвечать на сообщения
Вы не можете редактировать свои сообщения
Вы не можете удалять свои сообщения
Вы не можете добавлять вложения

Перейти:  
Контактная информация: rstracker[пёсик]yandex.ru
 Вход
ppkBB3cker v.2 © 2008-2014 @ PPK
[ Time : 0.038s | 18 Queries | GZIP : Off ]

cron