img image001 image001 image001 image001 image001 image001 image001 image001 image001 image001 image001 image001 image001 image001 image001

Planets Sun Sun Sun
Статистика раздачи
Автор: PriZraK | Размер: 709.87 МБ | Добавлен: 08 янв 2017
Раздают: 30    Качают: 4
Скачать торрент
Скачать торрент
Описание торрента

СообщениеДобавлено: 08 янв 2017 

Шекспир. Предостережение Королям... Проект Владимира Познера


#77
Год выпуска: 2016
Страна: Россия
Телеканал: Первый Канал HD | ООО "Эс Эф Продакшн"
Жанр: Документальный
Общая продолжительность: 0:52:37
Режиссер: Валерий Спирин
Ведущий: Владимир Познер

Описание: Владимир Познер: "Это документальный фильм, но с элементами художественного. В фильме есть актеры, которые играют небольшие фрагменты из произведений Шекспира. Но все-таки я бы сказал, что это документальный фильм, посвященный Шекспиру. Мы снимали в Лондоне, где жил и играл Шекспир, а также в Стратфорде-апон-Эйвоне, где он родился и где он умер".

Автор рипа: lrn
Автор записи: Doc66
Сэмпл: sendfile

Тип релиза: HDTVRip-AVC
Контейнер: MKV
Видео: 1024x576 (16:9), 25,000 fps, H264, ~1500 kbps avg, ~0.102 bit/pixel
Аудио: 48 kHz, AC3 Dolby Digital, 3/2 (L,C,R,l,r) + LFE ch, ~384.00 kbps avg

General
Unique ID : 194349699455385856907538497051323607755 (0x923663FD780AE6F78AC0DF57C0092ACB)
Complete name : Shekspir.Predosterezhenie.Korolyam.2016.HDTVRip-AVC.x264-lrn.mkv
Format : Matroska
Format version : Version 4 / Version 2
File size : 710 MiB
Duration : 52 min 37 s
Overall bit rate : 1 886 kb/s
Movie name : Shekspir.Predosterezhenie.Korolyam.2016.HDTVRip-AVC.x264-lrn
Encoded date : UTC 2010-02-22 21:41:31
Writing application : mkvmerge v5.9.0 ('On The Loose') built on Dec 9 2012 15:37:01
Writing library : libebml v1.3.0 + libmatroska v1.4.0

Video
ID : 1
Format : AVC
Format/Info : Advanced Video Codec
Format profile : High@L4.1
Format settings, CABAC : Yes
Format settings, ReFrames : 8 frames
Codec ID : V_MPEG4/ISO/AVC
Duration : 52 min 37 s
Bit rate : 1 500 kb/s
Width : 1 024 pixels
Height : 576 pixels
Display aspect ratio : 16:9
Frame rate mode : Constant
Frame rate : 25.000 FPS
Color space : YUV
Chroma subsampling : 4:2:0
Bit depth : 8 bits
Scan type : Progressive
Bits/(Pixel*Frame) : 0.102
Stream size : 551 MiB (78%)
Writing library : x264 core 148 r2638 7599210
Encoding settings : cabac=1 / ref=8 / deblock=1:-3:-3 / analyse=0x3:0x133 / me=umh / subme=9 / psy=1 / psy_rd=1.00:0.00 / mixed_ref=1 / me_range=32 / chroma_me=1 / trellis=2 / 8x8dct=1 / cqm=0 / deadzone=21,11 / fast_pskip=1 / chroma_qp_offset=-2 / threads=12 / lookahead_threads=2 / sliced_threads=0 / nr=0 / decimate=1 / interlaced=0 / bluray_compat=0 / constrained_intra=0 / bframes=8 / b_pyramid=2 / b_adapt=2 / b_bias=0 / direct=3 / weightb=1 / open_gop=0 / weightp=2 / keyint=250 / keyint_min=25 / scenecut=40 / intra_refresh=0 / rc_lookahead=50 / rc=2pass / mbtree=1 / bitrate=1500 / ratetol=1.0 / qcomp=0.60 / qpmin=0 / qpmax=69 / qpstep=4 / cplxblur=20.0 / qblur=0.5 / vbv_maxrate=62500 / vbv_bufsize=78125 / nal_hrd=none / filler=0 / ip_ratio=1.40 / aq=1:1.00
Default : Yes
Forced : No
Statistics Tags Issue : mkvmerge v8.5.2 ('Crosses') 32bit 2017-01-06 23:10:22 / mkvmerge v5.9.0 ('On The Loose') built on Dec 9 2012 15:37:01 2010-02-22 21:41:31
FromStats_BitRate : 1500082
FromStats_Duration : 00:52:37.640000000
FromStats_FrameCount : 78941
FromStats_StreamSize : 592090051

Audio
ID : 2
Format : AC-3
Format/Info : Audio Coding 3
Mode extension : CM (complete main)
Format settings, Endianness : Big
Codec ID : A_AC3
Duration : 52 min 37 s
Bit rate mode : Constant
Bit rate : 384 kb/s
Channel(s) : 6 channels
Channel positions : Front: L C R, Side: L R, LFE
Sampling rate : 48.0 kHz
Frame rate : 31.250 FPS (1536 spf)
Bit depth : 16 bits
Compression mode : Lossy
Stream size : 145 MiB (20%)
Language : Russian
Default : Yes
Forced : No
raw [info]: 1024x576p 1:1 @ 25/1 fps (cfr)
x264 [info]: using SAR=1/1
x264 [info]: using cpu capabilities: MMX2 SSE2Fast SSSE3 SSE4.2 AVX
x264 [info]: profile High, level 4.1
x264 [info]: frame I:730 Avg QP:17.76 size: 79124
x264 [info]: frame P:22215 Avg QP:21.20 size: 16330
x264 [info]: frame B:55996 Avg QP:25.15 size: 3064
x264 [info]: consecutive B-frames: 4.0% 6.4% 6.9% 68.4% 5.7% 6.1% 0.7% 1.3% 0.5%
x264 [info]: mb I I16..4: 7.9% 70.9% 21.2%
x264 [info]: mb P I16..4: 1.8% 6.2% 0.9% P16..4: 43.0% 14.1% 13.4% 0.7% 0.3% skip:19.6%
x264 [info]: mb B I16..4: 0.1% 0.5% 0.1% B16..8: 32.8% 4.5% 1.1% direct: 2.0% skip:58.7% L0:37.9% L1:48.4% BI:13.7%
x264 [info]: 8x8 transform intra:69.7% inter:61.7%
x264 [info]: direct mvs spatial:93.4% temporal:6.6%
x264 [info]: coded y,uvDC,uvAC intra: 66.2% 67.6% 30.8% inter: 12.1% 12.6% 0.6%
x264 [info]: i16 v,h,dc,p: 31% 21% 8% 39%
x264 [info]: i8 v,h,dc,ddl,ddr,vr,hd,vl,hu: 14% 12% 9% 7% 11% 12% 12% 11% 12%
x264 [info]: i4 v,h,dc,ddl,ddr,vr,hd,vl,hu: 16% 13% 5% 8% 12% 12% 12% 10% 12%
x264 [info]: i8c dc,h,v,p: 36% 27% 22% 15%
x264 [info]: Weighted P-Frames: Y:2.8% UV:1.1%
x264 [info]: ref P L0: 55.5% 14.6% 13.6% 4.9% 3.7% 3.0% 2.7% 1.8% 0.2% 0.0%
x264 [info]: ref B L0: 85.0% 7.7% 3.5% 1.5% 1.1% 0.7% 0.5%
x264 [info]: ref B L1: 96.4% 3.6%
x264 [info]: kb/s:1500.08
encoded 78941 frames, 26.58 fps, 1500.08 kb/s



   Похожие торренты   Торрент   Размер 
В этой теме нет новых непрочитанных сообщений. Шекспир. Предостережение Королям... Проект Владимира Познера (2016) HDTVRip 720p

12 | 1

1.61 ГБ

В этой теме нет новых непрочитанных сообщений. Еврейское Счастье: Проект Владимира Познера и Ивана Урганта [01-08 из 08] (2016) HDTVRip-AVC

771 | 96

5.06 ГБ

В этой теме нет новых непрочитанных сообщений. Еврейское Счастье: Проект Владимира Познера и Ивана Урганта [01-08 из 08] (2016) HDTVRip 720p

1487 | 465

11.77 ГБ

В этой теме нет новых непрочитанных сообщений. В Поисках Дон Кихота: Проект Владимира Познера и Ивана Урганта [01-08 из 08] (2017) HDTVRip-AVC

30 | 13

4.54 ГБ

В этой теме нет новых непрочитанных сообщений. В Поисках Дон Кихота: Проект Владимира Познера и Ивана Урганта [01-08 из 08] (2017) HDTVRip 720p

19 | 6

11.24 ГБ

В этой теме нет новых непрочитанных сообщений. Проект Предостережение (2002-2004) TVRip

0 | 1

2.71 ГБ

В этой теме нет новых непрочитанных сообщений. Шекспир жив! / Shakespeare Live! From the RSC (2016) HDTVRip | Sub

75 | 8

2.19 ГБ




Вы не можете начинать темы
Вы не можете отвечать на сообщения
Вы не можете редактировать свои сообщения
Вы не можете удалять свои сообщения
Вы не можете добавлять вложения

Перейти:  
Для Мосгорсуда, Роскомнадзора и рекламодателей: mosgorsud-torrent[собачка]yandex.ru
 Вход
ppkBB3cker v.2 © 2008-2014 @ PPK
[ Time : 0.068s | 16 Queries | GZIP : Off ]

Торрент трекер RUTOR.IN, Не можете зайти на rutor.org? Какой новый адрес рутор? Какое зеркало рутор? Не работает rutor.org и зеркала? Тогда наш торрент специально для вас. Rutor.in неофициальное зеркало rutor. В случае если у Вас заблокирован rutor или вдруг Вы не можете на него зайти, то Вы без труда сможете скачать бесплатно и без рекламы последние новинки кино, игр, сериалов и прочего у нас, на Rutor.in. Не нужно использовать прокси, чтобы зайти на рутор, достаточно воспользоваться нашим ресурсом. Все новые фильмы, игры, сериалы, книги и музыка за 2013 и 2014 годы через торрент бесплатно. Скачивайте фильмы в хорошем качестве, игры для пк, xbox, playstation без регистрации. У нас вы найдете новые Зарубежные сериалы и Русские сериалы 2013, 2014, 2015 годов. Оставайтесь с нами, качайте любимые фильмы, игры, сериалы, книги и музыку.
cron