img image001 image001 image001 image001 image001 image001 image001 image001 image001 image001 image001 image001 image001 image001 image001

Planets Sun Sun Sun
Статистика раздачи
Автор: Nickolas3434 | Размер: 444.93 МБ | Добавлен: 26 июл 2017
Раздают: 6    Качают: 0
Скачать торрент
Скачать торрент
Описание торрента

СообщениеДобавлено: 26 июл 2017 

Что скрывают зеркала

Перевод: Не требуется, cубтитры: отсутствуют
Формат: IPTVRip, MKV, H.264, AC3
Страна: Россия
Жанр: документальный, познавательный
Продолжительность: 00:39:02
Год выпуска: 2017

Описание: Зеркала отражают мир, который нас окружает, - благодаря им он становится более понятным. Но что скрывается в их таинственной зеркальной бездне? Без человека это обычный кусок стекла или металла. И только мы сами одушевляем его, наделяем этот предмет удивительными свойствами... Участвуют: актриса Алла Демидова, писатель-фантаст Саша Кругосветов, академик РАН Влаиль Казначеев, философ Владимир Синкевич.

Видео: 704х416 (16:9), 25 fps, AVC (x264) , ~1400 kbps avg, 0.191 bit/pixe
Аудио: 48 kHz, AC3, 2 ch, ~192.00 kbps avg

Доп. информация:

Общее
Уникальный идентификатор : 252702455371228827500352068031063432934 (0xBE1CB8FB21AB33369C1F7186C27E9EE6)
Полное имя : D:\Что скрывают зеркала.2017.IPTVRip.mkv
Формат : Matroska
Версия формата : Version 2
Размер файла : 445 Мбайт
Продолжительность : 39 м.
Общий поток : 1593 Кбит/сек
Дата кодирования : UTC 2017-07-14 16:44:38
Программа кодирования : mkvmerge v7.8.0 ('River Man') 32bit built on Apr 3 2015 12:11:22
Библиотека кодирования : libebml v1.3.1 + libmatroska v1.4.2

Видео
Идентификатор : 1
Формат : AVC
Формат/Информация : Advanced Video Codec
Профиль формата :
Параметр CABAC формата : Да
Параметр ReFrames формата : 16 кадров
Идентификатор кодека : V_MPEG4/ISO/AVC
Продолжительность : 39 м.
Битрейт : 1400 Кбит/сек
Ширина : 704 пикселя
Высота : 416 пикселей
Соотношение сторон : 5:3
Режим частоты кадров : Постоянный
Частота кадров : 25,000 кадров/сек
Цветовое пространство : YUV
Субдискретизация насыщенности : 4:2:0
Битовая глубина : 8 бит
Тип развёртки : Прогрессивная
Бит/(Пиксели*Кадры) : 0.191
Размер потока : 382 Мбайт (86%)
Библиотека кодирования : x264 core 146 r2538 121396c
Настройки программы : cabac=1 / ref=16 / deblock=1:-1:-1 / analyse=0x3:0x113 / me=umh / subme=10 / psy=1 / psy_rd=1.00:0.00 / mixed_ref=1 / me_range=32 / chroma_me=1 / trellis=2 / 8x8dct=1 / cqm=0 / deadzone=21,11 / fast_pskip=0 / chroma_qp_offset=-2 / threads=12 / lookahead_threads=2 / sliced_threads=0 / nr=0 / decimate=0 / interlaced=0 / bluray_compat=0 / constrained_intra=0 / bframes=8 / b_pyramid=2 / b_adapt=2 / b_bias=0 / direct=3 / weightb=1 / open_gop=0 / weightp=2 / keyint=250 / keyint_min=25 / scenecut=40 / intra_refresh=0 / rc_lookahead=40 / rc=2pass / mbtree=0 / bitrate=1400 / ratetol=1.0 / qcomp=0.60 / qpmin=10 / qpmax=51 / qpstep=4 / cplxblur=20.0 / qblur=0.5 / vbv_maxrate=14000 / vbv_bufsize=14000 / nal_hrd=none / filler=0 / ip_ratio=1.40 / pb_ratio=1.30 / aq=1:0.80
Default : Да
Forced : Нет

Аудио
Идентификатор : 2
Формат : AC-3
Формат/Информация : Audio Coding 3
Расширение режима : CM (complete main)
Параметр Endianness формата : Big
Идентификатор кодека : A_AC3
Продолжительность : 39 м.
Вид битрейта : Постоянный
Битрейт : 192 Кбит/сек
Каналы : 2 канала
Расположение каналов : Front: L R
Частота : 48,0 КГц
Частота кадров : 31,250 кадров/сек (1536 spf)
Метод сжатия : С потерями
Размер потока : 53,6 Мбайт (12%)
Default : Да
Forced : Нет







   Похожие торренты   Торрент   Размер 
В этой теме нет новых непрочитанных сообщений. Что скрывают зеркала (2017) SATRip от Files-х

16 | 2

502.55 МБ

В этой теме нет новых непрочитанных сообщений. Потомки (1-16 серии из ?) (ООО ЭсКаСи) [2017, документальный, исторический, научно-познавательный, IPTVRip]

4 | 2

5.49 ГБ

В этой теме нет новых непрочитанных сообщений. Потомки (1-5 серии из ?) (ООО ЭсКаСи) [2017, документальный, исторический, научно-познавательный, IPTVRip]

2 | 0

1.7 ГБ

В этой теме нет новых непрочитанных сообщений. Потомки (1-10 серии из ?) (ООО ЭсКаСи) [2017, документальный, исторический, научно-познавательный, IPTVRip]

1 | 2

3.43 ГБ

В этой теме нет новых непрочитанных сообщений. Потомки (Культурная революция) (ООО ЭсКаСи) [2017, документальный, исторический, научно-познавательный, IPTVRip]

4 | 1

340.44 МБ

В этой теме нет новых непрочитанных сообщений. Потомки (Портреты революции) (1-6 серии из ?) (ООО ЭсКаСи) [2017, документальный, исторический, научно-познавательный, IPTVRip]

4 | 0

2.08 ГБ

В этой теме нет новых непрочитанных сообщений. Документальный спецпроект (1-30 выпуски) (Рен-ТВ) [2017, документальный, познавательный, исследавание, WEB-DLRip ]

2 | 0

31.77 ГБ




Вы не можете начинать темы
Вы не можете отвечать на сообщения
Вы не можете редактировать свои сообщения
Вы не можете удалять свои сообщения
Вы не можете добавлять вложения

Перейти:  
Контактная информация: rstracker[пёсик]yandex.ru
 Вход
ppkBB3cker v.2 © 2008-2014 @ PPK
[ Time : 0.023s | 18 Queries | GZIP : Off ]

cron