img image001 image001 image001 image001 image001 image001 image001 image001 image001 image001 image001 image001 image001 image001 image001 image001
Planets Sun Sun Sun
Статистика раздачи
Автор: Nickolas3434 | Размер: 1.93 ГБ | Добавлен: 10 сен 2017
Раздают: 81    Качают: 2
Скачать торрент
Скачать торрент
Описание торрента

СообщениеДобавлено: 10 сен 2017 

Информация о фильме
Название: Gimme Danger. История Игги и The Stooges
Оригинальное название: Gimme Danger
Год выхода: 2016
Жанр: документальный, музыка
Режиссер: Джим Джармуш
В ролях: Юэн МакГрегор, Игги Поп, Майкл Уотт, Рон Эшетон, Джеймс Уильямсон, Дэнни Филдс, Скотт Эшетон, Kathy Asheton, Steve Mackay, Дэвид Боуи
О фильме:
История группы The Stooges, одной из величайших рок-н-ролл групп всех времен. Появившись в Анн-Арбор (Мичиган) в эпоху контркультурной революции, яркий и агрессивный рок-н-ролл The Stooges перевернул музыкальный мир конца 60-х. Обрушив на аудиторию замес рока, блюза, R&B и джаза, группа дала начало тому, что впоследствии назовут панком и альтернативным роком.
Страна: США
Продолжительность: 01:37:23
Перевод: Субтитры
Субтитры: Вшитые не отключаемые (русские)
Файл
Кодек: AVC
Качество: WEBRip 720p
Видео: AVC, 1280x720 (16:9), 25.000 fps, 2585 Кбит/сек
Звук: AAC LC, 48.0 KHz, 2 ch, 256 Кбит/сек (English)
ЦитатаКто-то писал:
А, знаете ли вы, что:
Режиссер Джим Джармуш работал над картиной около 6 лет.
Джим Джармуш и Игги Поп лично представили фильм на его премьере 19 мая 2016 года на Каннском кинофестивале.
Формат : Matroska
Версия формата : Version 4 / Version 2
Размер файла : 1,93 Гбайт
Продолжительность : 1 ч. 37 м.
Общий поток : 2844 Кбит/сек
Название фильма : Релиз от Neftannik
Дата кодирования : UTC 2017-09-09 20:17:23
Программа кодирования : mkvmerge v15.0.0 ('Duel with the Devil') 64-bit
Библиотека кодирования : libebml v1.3.5 + libmatroska v1.4.5
Видео
Идентификатор : 1
Формат : AVC
Формат/Информация : Advanced Video Codec
Профиль формата : High@L4
Параметр CABAC формата : Да
Параметр ReFrames формата : 4 кадра
Параметр GOP формата : M=1, N=50
Идентификатор кодека : V_MPEG4/ISO/AVC
Продолжительность : 1 ч. 37 м.
Битрейт : 2585 Кбит/сек
Ширина : 1280 пикселей
Высота : 720 пикселей
Соотношение сторон : 16:9
Режим частоты кадров : Постоянный
Частота кадров : 25,000 кадров/сек
Цветовое пространство : YUV
Субдискретизация насыщенности : 4:2:0
Битовая глубина : 8 бит
Тип развёртки : Прогрессивная
Бит/(Пиксели*Кадры) : 0.112
Размер потока : 1,76 Гбайт (91%)
Заголовок : Вшитые субтитры (русские)
Язык : English
Default : Да
Forced : Нет
Аудио
Идентификатор : 2
Формат : AAC
Формат/Информация : Advanced Audio Codec
Профиль формата : LC
Идентификатор кодека : A_AAC
Продолжительность : 1 ч. 37 м.
Битрейт : 256 Кбит/сек
Каналы : 2 канала
Расположение каналов : Front: L R
Частота : 48,0 КГц
Частота кадров : 46,875 кадров/сек (1024 spf)
Метод сжатия : С потерями
Задержка видео : -80 мс.
Размер потока : 178 Мбайт (9%)
Язык : English
Default : Да
Forced : Нет




   Похожие торренты   Торрент   Размер 
В этой теме нет новых непрочитанных сообщений. VA - MOJO Presents: Gimme Danger (2016) FLAC

24 | 2

404.61 МБ

В этой теме нет новых непрочитанных сообщений. Ген 13 / Gen 13 [01-65], Divine Right [00-10], Danger Girl [01-09], Danger Girl: Mayday [01-04] (1997-2014) CBR, CBZ

12 | 4

2.04 ГБ

В этой теме нет новых непрочитанных сообщений. Twin Danger - Twin Danger (2015) MP3 от BestSound ExKinoRay

24 | 4

115.55 МБ

В этой теме нет новых непрочитанных сообщений. Max Him - Danger-Danger (2006) APE

6 | 2

653.79 МБ

В этой теме нет новых непрочитанных сообщений. Twin Danger - Twin Danger (2015) FLAC

116 | 1

281.76 МБ

В этой теме нет новых непрочитанных сообщений. Ciara - Gimme Dat (2010) SATRip

0 | 2

149.19 МБ

В этой теме нет новых непрочитанных сообщений. Подари мне убежище / Gimme Shelter (2013) HDRip | iTunes

500 | 99

1.46 ГБ




Вы не можете начинать темы
Вы не можете отвечать на сообщения
Вы не можете редактировать свои сообщения
Вы не можете удалять свои сообщения
Вы не можете добавлять вложения

Перейти:  
Для Мосгорсуда, Роскомнадзора и рекламодателей: mosgorsud-torrent[собачка]yandex.ru
 Вход
ppkBB3cker v.2 © 2008-2014 @ PPK
[ Time : 0.023s | 17 Queries | GZIP : Off ]

cron