img image001 image001 image001 image001 image001 image001 image001 image001 image001 image001 image001 image001 image001 image001 image001

Planets Sun Sun Sun
Статистика раздачи
Автор: Nickolas3434 | Размер: 23.95 ГБ | Добавлен: 10 окт 2017
Раздают: 0    Качают: 0
Скачать торрент
Скачать торрент
Описание торрента

СообщениеДобавлено: 10 окт 2017 

Информация о шоу
Название: События прошедшей недели с Джоном Оливером
Оригинальное название: Last Week Tonight with John Oliver
Год выхода: 2017
Жанр: новости, сатира, комедия
Выпущено: США / HBO
В ролях: Джон Оливер и все-все-все
Описание: Аналитическое разговорное шоу HBO, в котором британский ведущий в лице Джона Оливера язвительно высмеивает события прошедшей недели.

Качество: WEBRip 720p
Перевод: Любительский (многоголосый, закадровый) | AMS
Продолжительность: ~00:30:00
Файл
Формат: MKV
Видео: AVC (x264) | 1280x720p | 59,940 fps | ~4400 kbps
Аудио #1: AC3 | 48KHz | 2.0 (Front: L R) | ~192 kbps [AMS]
Аудио #2: AAC | 48KHz | 2.0 (Front: L R) | ~128 kbps [Original]
Субтитры: Английские (SRT)
Внимание! Присутствует звуковая реклама (два раза: в начале и конце по 12 сек).
01. [12.02.2017] Трамп против истины
02. [19.02.2017] Путин
03. [26.02.2017] МедОбама
04. [05.03.2017] Далай-Лама
05. [12.03.2017] Американский закон о медицинском обслуживании
06. [19.03.2017] Федеральный бюджет
07. [02.04.2017] Марихуана
08. [09.04.2017] Перекраивание округов
09. [16.04.2017] Французские выборы
10. [23.04.2017] Иванка и Джаред
11. [07.05.2017] Сетевой нейтралитет
12. [14.05.2017] Диализ
13. [21.05.2017] Дебильный Уотергейт
14. [04.06.2017] Парижское соглашение
15. [11.06.2017] Брискок 2 (Брексит)
16. [18.06.2017] Уголь
17. [25.06.2017] Прививки
18. [02.07.2017] Местные новости
19. [30.07.2017] Алекс Джонс
20. [06.08.2017] Пограничный патруль
21. [13.08.2017] Северная Корея
22. [20.08.2017] Ядерные отходы
23. [10.09.2017] Президентские помилования
24. [24.09.2017] Корпоративное объединение
25. [01.10.2017] Судебная наука
26. [08.10.2017] ...
27. [15.10.2017] ...
28. [29.10.2017] ...
29. [05.11.2017] ...
30. [12.11.2017] ...

General
Unique ID : 41126048131035485255847062678833461182 (0x1EF096B8E8B33B4E36D91BE6F717F7BE)
Complete name : /Last.Week.Tonight.with.John.Oliver.S04.720p.WEBRip.AMS/Last.Week.Tonight.with.John.Oliver.S04E01.720p.WEBRip.AMS.mkv
Format : Matroska
Format version : Version 4 / Version 2
File size : 1 004 MiB
Duration : 29mn 49s
Overall bit rate : 4 707 Kbps
Movie name : Last Week Tonight with John Oliver 4x01 [MVO AMS]
Encoded date : UTC 2017-04-03 07:33:00
Writing application : mkvmerge v8.2.0 ('World of Adventure') 64bit
Writing library : libebml v1.3.1 + libmatroska v1.4.2
Video
ID : 1
Format : AVC
Format/Info : Advanced Video Codec
Format profile : High@L4.1
Format settings, CABAC : Yes
Format settings, ReFrames : 4 frames
Codec ID : V_MPEG4/ISO/AVC
Duration : 29mn 49s
Bit rate mode : Constant
Bit rate : 4 372 Kbps
Width : 1 280 pixels
Height : 720 pixels
Display aspect ratio : 16:9
Frame rate mode : Constant
Frame rate : 59.940 (60000/1001) fps
Color space : YUV
Chroma subsampling : 4:2:0
Bit depth : 8 bits
Scan type : Progressive
Bits/(Pixel*Frame) : 0.079
Stream size : 935 MiB (93%)
Title : Last Week Tonight with John Oliver 4x01 [MVO AMS]
Language : English
Default : Yes
Forced : No
Audio #1
ID : 2
Format : AC-3
Format/Info : Audio Coding 3
Mode extension : CM (complete main)
Format settings, Endianness : Big
Codec ID : A_AC3
Duration : 29mn 49s
Bit rate mode : Constant
Bit rate : 192 Kbps
Channel(s) : 2 channels
Channel positions : Front: L R
Sampling rate : 48.0 KHz
Frame rate : 31.250 fps (1536 spf)
Compression mode : Lossy
Stream size : 41.0 MiB (4%)
Title : AMS
Language : Russian
Default : Yes
Forced : No
Audio #2
ID : 3
Format : AAC
Format/Info : Advanced Audio Codec
Format profile : LC
Codec ID : A_AAC
Duration : 29mn 49s
Bit rate : 125 Kbps
Channel(s) : 2 channels
Channel positions : Front: L R
Sampling rate : 48.0 KHz
Frame rate : 46.875 fps (1024 spf)
Compression mode : Lossy
Stream size : 26.8 MiB (3%)
Title : English
Language : English
Default : No
Forced : No
Text
ID : 4
Format : UTF-8
Codec ID : S_TEXT/UTF8
Codec ID/Info : UTF-8 Plain Text
Duration : 29mn 37s
Bit rate : 230 bps
Count of elements : 1028
Stream size : 50.0 KiB (0%)
Title : eng-subs
Language : English
Default : No
Forced : No





   Похожие торренты   Торрент   Размер 
В этой теме нет новых непрочитанных сообщений. События прошедшей недели с Джоном Оливером / Last Week Tonight with John Oliver [04x01-04] (2017) WEBRip 720p | Sub

0 | 0

3.73 ГБ

В этой теме нет новых непрочитанных сообщений. События прошедшей недели с Джоном Оливером / Last Week Tonight with John Oliver [04x01-17] (2017) WEBRip 720p | AMS

0 | 0

16.86 ГБ

В этой теме нет новых непрочитанных сообщений. События прошедшей недели с Джоном Оливером / Last Week Tonight with John Oliver [04x01-06] (2017) WEBRip 720p | Sub

4 | 2

5.6 ГБ

В этой теме нет новых непрочитанных сообщений. События прошедшей недели с Джоном Оливером / Last Week Tonight with John Oliver [04x01-23] (2017) WEBRip 720p | Sub

1 | 2

22.63 ГБ

В этой теме нет новых непрочитанных сообщений. События прошедшей недели с Джоном Оливером / Last Week Tonight with John Oliver [04x01-12] (2017) WEBRip 720p | Sub

1 | 16

11.84 ГБ

В этой теме нет новых непрочитанных сообщений. События прошедшей недели с Джоном Оливером / Last Week Tonight with John Oliver [04x01-17] (2017) WEBRip 720p | Sub

7 | 5

16.66 ГБ

В этой теме нет новых непрочитанных сообщений. События прошедшей недели с Джоном Оливером / Last Week Tonight with John Oliver [04x01-05] (2017) WEBRip 720p | Sub

3 | 4

4.66 ГБ




Вы не можете начинать темы
Вы не можете отвечать на сообщения
Вы не можете редактировать свои сообщения
Вы не можете удалять свои сообщения
Вы не можете добавлять вложения

Перейти:  
Для Мосгорсуда, Роскомнадзора и рекламодателей: mosgorsud-torrent[собачка]yandex.ru
 Вход
ppkBB3cker v.2 © 2008-2014 @ PPK
[ Time : 0.033s | 18 Queries | GZIP : Off ]

cron