img image001 image001 image001 image001 image001 image001 image001 image001 image001 image001 image001 image001 image001 image001 image001

Planets Sun Sun Sun
Статистика раздачи
Автор: Nickolas3434 | Размер: 1.17 ГБ | Добавлен: 23 ноя 2017
Раздают: 13    Качают: 0
Скачать торрент
Скачать торрент
Описание торрента

СообщениеДобавлено: 23 ноя 2017 

Информация о фильме
Название: Прав!Да? Как спасти россиян от кредитного рабства?
Год выхода: 19.11.2017
Жанр: Телепередача, ток-шоу
Ведущие: Дмитрий Лысков, Николай Матвеев, Анастасия Урнова
Участники: Ян Арт, Алексей Саватюгин, Гарегин Тосунян, Евгений Федоров, Дмитрий Янин
О фильме:
Передача "Прав!Да?" выходит на ОТР 4 раза в неделю с понедельника по четверг.
В эфире обсуждаются вопросы и проблемы в сфере медицины, образования, социальных выплат, состояния рынка жилья, положения мигрантов, профсоюзного движения...
Реальные доходы россиян падают, а кредитная активность населения только растет. С начала года объемы потребительского кредитования в России взлетели на 38%, банки выдали почти триллион рублевых новых займов. Несмотря на грабительские проценты, по-прежнему востребованы микрокредиты – на 1000 экономически активных россиян в среднем приходится 39 займов до зарплаты.
Кредитомания ложится тяжелым бременем на кошельки наших граждан. По оценке экспертов, в среднем каждый третий заработанный ими рубль уходит на оплату полученных займов.
Официальный сайт
Страна: Россия, ОРТ
Продолжительность: 00:52:00
Перевод: Не требуется, субтитры: отсутствуют
Файл
Кодек: h.264
Качество: WEBRip 720p
Видео: AVC MPEG-4, 1280x720 (16:9), ~3127 Kbps
Звук: AAC, 1 ch, 81 Kbps
General
Unique ID : 242458268876750099472029130049330517157 (0xB667C3976E50D52182DC0B3868E294A5)
Complete name : D:FilmПРАВ!ДА Как спасти россиян от кредитного рабства.mkv
Format : Matroska
Format version : Version 4 / Version 2
File size : 1.17 GiB
Duration : 52 min 0 s
Overall bit rate : 3 211 kb/s
Encoded date : UTC 2017-11-22 17:33:44
Writing application : mkvmerge v18.0.0 ('Apricity') 64-bit
Writing library : libebml v1.3.5 + libmatroska v1.4.8
Cover : Yes
Attachments : cover.png
Video
ID : 1
Format : AVC
Format/Info : Advanced Video Codec
Format profile : High@L4.1
Format settings : CABAC / 1 Ref Frames
Format settings, CABAC : Yes
Format settings, RefFrames : 1 frame
Codec ID : V_MPEG4/ISO/AVC
Duration : 51 min 59 s
Bit rate : 3 127 kb/s
Width : 1 280 pixels
Height : 720 pixels
Display aspect ratio : 16:9
Frame rate mode : Variable
Frame rate : 24.584 FPS
Color space : YUV
Chroma subsampling : 4:2:0
Bit depth : 8 bits
Scan type : Progressive
Bits/(Pixel*Frame) : 0.138
Stream size : 1.14 GiB (97%)
Language : Russian
Default : Yes
Forced : No
Audio
ID : 2
Format : AAC
Format/Info : Advanced Audio Codec
Format profile : LC
Codec ID : A_AAC-2
Duration : 51 min 59 s
Bit rate : 81.3 kb/s
Channel(s) : 1 channel
Channel positions : Front: C
Sampling rate : 48.0 kHz
Frame rate : 46.875 FPS (1024 SPF)
Compression mode : Lossy
Delay relative to video : 107 ms
Stream size : 30.2 MiB (3%)
Language : Russian
Default : Yes
Forced : No






   Похожие торренты   Торрент   Размер 
В этой теме нет новых непрочитанных сообщений. Спасти Пушкина (2017) WEB-DL 720p | iTunes

111 | 6

2.55 ГБ

В этой теме нет новых непрочитанных сообщений. National Geographic. Спасти планету / Before the Flood (2016) WEBRip от ExKinoRay | D

39 | 4

1.37 ГБ

В этой теме нет новых непрочитанных сообщений. Пациент всегда прав / Royal pains [S03] (2011-2012) WEB-DL 720p | NewStudio

2 | 2

22.65 ГБ

В этой теме нет новых непрочитанных сообщений. Пациент всегда прав / Дорогой доктор / Royal Pains [S05] (2013) WEB-DL 720p | NewStudio

5 | 2

18.84 ГБ

В этой теме нет новых непрочитанных сообщений. Пациент всегда прав / Дорогой доктор / Royal Pains [05х01-05] (2013) WEB-DL 720p | NewStudio

3 | 9

7.13 ГБ

В этой теме нет новых непрочитанных сообщений. Спасти Пушкина (2017) WEB-DLRip-AVC | iTunes

145 | 15

747.25 МБ

В этой теме нет новых непрочитанных сообщений. Спасти Пушкина (2017) WEB-DLRip-AVC от ExKinoRay

50 | 0

1.32 ГБ




Вы не можете начинать темы
Вы не можете отвечать на сообщения
Вы не можете редактировать свои сообщения
Вы не можете удалять свои сообщения
Вы не можете добавлять вложения

Перейти:  
Для Мосгорсуда, Роскомнадзора и рекламодателей: mosgorsud-torrent[собачка]yandex.ru
 Вход
ppkBB3cker v.2 © 2008-2014 @ PPK
[ Time : 0.053s | 19 Queries | GZIP : Off ]

cron