img image001 image001 image001 image001 image001 image001 image001 image001 image001 image001 image001 image001 image001 image001 image001 image001

Planets Sun Sun Sun
Статистика раздачи
Автор: Nickolas3434 | Размер: 567.78 МБ | Добавлен: 15 дек 2017
Раздают: 0    Качают: 0
Скачать торрент
Скачать торрент
Описание торрента

СообщениеДобавлено: 15 дек 2017 

Информация о фильме
Название: Седая легенда Владимира Короткевича
Год выхода: 2009
Жанр: Документальный
Режиссер: Андрей Мицкивеч
О фильме:
Документальный фильм-реконструкциия с рядом монологов-воспоминаний современников Владимира Короткевича об особенностях экранизации его произведений: "Житие и вознесение Юрася Братчика", «Дикая охота короля Стаха», "Черный замок Ольшанский", "Седая легенда".
Доп. информация:
Запись потока *.ts с наземного цифрового телеканала "Беларусь 3".

Благодарность: за помощь с недостающим материалом Bartimeyse и PavelDAS. Обоим большое спасибо!
Страна: Республика Беларусь
Студия: Белтелерадиокомпания
Продолжительность: AVC (H264)
Перевод: не требует
Файл
Кодек: AVC (H264)
Качество: DVB
Видео: MPEG4 Video (H264) 720(785)x576 (49:36) 25fps, 2 258 kb/s
Звук: MPEG Audio 48000Hz stereo 256kbps
Код:
General
ID                             : 1 (0x1)
Complete name                  : D:Новая  земля 201 Документальный фильмыЛичностиСедая Легенда Владимира КороткевичаСедая легенда Владимира Короткевича (2009).ts
Format                         : MPEG-TS
File size                      : 568 MiB
Duration                       : 29 min
Overall bit rate mode          : Variable
Overall bit rate               : 2 647 kb/s
Video
ID                             : 801 (0x321)
Menu ID                        : 8 (0x8)
Format                         : AVC
Format/Info                    : Advanced Video Codec
Format profile                 : Main@L3
Format settings, CABAC         : Yes
Format settings, ReFrames      : 4 frames
Format settings, GOP           : M=4, N=24
Codec ID                       : 27
Duration                       : 29 min
Bit rate                       : 2 258 kb/s
Width                          : 720 pixels
Height                         : 576 pixels
Display aspect ratio           : 4:3
Frame rate                     : 25.000 FPS
Standard                       : PAL
Color space                    : YUV
Chroma subsampling             : 4:2:0
Bit depth                      : 8 bits
Scan type                      : MBAFF
Scan type, store method        : Separated fields
Scan order                     : Top Field First
Bits/(Pixel*Frame)             : 0.218
Stream size                    : 484 MiB (85%)
Color range                    : Limited
Color primaries                : BT.601 PAL
Transfer characteristics       : BT.470 System B, BT.470 System G
Matrix coefficients            : BT.601
Audio
ID                             : 802 (0x322)
Menu ID                        : 8 (0x8)
Format                         : MPEG Audio
Format version                 : Version 1
Format profile                 : Layer 2
Codec ID                       : 3
Duration                       : 29 min
Bit rate mode                  : Constant
Bit rate                       : 256 kb/s
Channel(s)                     : 2 channels
Sampling rate                  : 48.0 kHz
Compression mode               : Lossy
Stream size                    : 54.9 MiB (10%)
Language                       : English
Text
ID                             : 803 (0x323)-800
Menu ID                        : 8 (0x8)
Format                         : Teletext Subtitle
Language                       : Russian
Language, more info            : For hearing impaired people




   Похожие торренты   Торрент   Размер 
В этой теме нет новых непрочитанных сообщений. Опера - Владимир Короткевич - Седая легенда (Вечера Большого театра в замке Радзивиллов) (2013) BD DVB от AND03AND

2 | 2

1.7 ГБ

В этой теме нет новых непрочитанных сообщений. Седая легенда / Siwa legenda (1991) DVDRip от Alekxandr48

38 | 5

1.37 ГБ

В этой теме нет новых непрочитанных сообщений. Авторский вечер композитора Владимира Курьяна (2016) DVB от AND03AND

1 | 0

1.46 ГБ

В этой теме нет новых непрочитанных сообщений. Концерт - Вянок / Венок. Цикл песен Владимира Мулявина на стихи Максима Богдановича (2018) DVB от AND03AND

1 | 0

1.22 ГБ

В этой теме нет новых непрочитанных сообщений. Песняры - Концерт памяти Владимира Мулявина - Я буду маліцца і сэрцам і думамі... (Песни прошлого века) (2008) DVB от AND03AND

7 | 0

1.01 ГБ

В этой теме нет новых непрочитанных сообщений. Александр Медведь. Человек-легенда (2012) SATRip от AND03AND

81 | 8

369.77 МБ

В этой теме нет новых непрочитанных сообщений. Легенда о Костоломе / Легенда о Костяном Драконе / Легенда о Костобое / Legend of the Boneknapper Dragon (2010) BDRip от HQCLUB

20 | 33

451.83 МБ




Вы не можете начинать темы
Вы не можете отвечать на сообщения
Вы не можете редактировать свои сообщения
Вы не можете удалять свои сообщения
Вы не можете добавлять вложения

Перейти:  
 Вход
ppkBB3cker v.2 © 2008-2014 @ PPK
[ Time : 0.030s | 19 Queries | GZIP : Off ]

cron