img image001 image001 image001 image001 image001 image001 image001 image001 image001 image001 image001 image001 image001 image001 image001 image001

Planets Sun Sun Sun
Статистика раздачи
Автор: Снежана | Размер: 577.19 МБ | Добавлен: 14 фев 2018
Раздают: 0    Качают: 0
Скачать торрент
Скачать торрент
Описание торрента

СообщениеДобавлено: 14 фев 2018 

Мюнхенская речь Владимира Путина (Эфир от 10.02.2007)
Оценка релиза: 
Перевод: Не требуется, cубтитры: отсутствуют
Формат: HDTV 1080p, MKV, H.264, AAC
Страна: Россия, RT
Жанр: документальный
Продолжительность: 00:30:40
Год выпуска: 2007

Описание: Речь, произнесённая Президентом России Владимиром Путиным на Мюнхенской конференции по вопросам политики безопасности 10 февраля 2007 года. Там Путин объяснил: «Что же такое однополярный мир? - Это один центр власти, один центр силы, один центр принятия решения. Это мир одного хозяина, одного суверена...»

Видео: 1440x1080 (4:3), 25 fps, AVC MPEG-4 (High@L4.1) ~2500 kbps, 0.06 bit/pixel
Аудио: 44.1 kHz, AAC, 2 ch, ~126 kbps


General
Unique ID : 251749806949464862308645111512030665037 (0xBD653FC99704CEEA5C2706DCEE2A594D)
Complete name : D:\Film\Мюнхенская речь Владимира Путина.mkv
Format : Matroska
Format version : Version 4 / Version 2
File size : 577 MiB
Duration : 30 min 40 s
Overall bit rate : 2 630 kb/s
Encoded date : UTC 2018-02-12 20:43:16
Writing application : mkvmerge v20.0.0 ('I Am The Sun') 64-bit
Writing library : libebml v1.3.5 + libmatroska v1.4.8
Cover : Yes
Attachments : cover.png

Video
ID : 1
Format : AVC
Format/Info : Advanced Video Codec
Format profile :
Format settings : CABAC / 3 Ref Frames
Format settings, CABAC : Yes
Format settings, RefFrames : 3 frames
Codec ID : V_MPEG4/ISO/AVC
Duration : 30 min 40 s
Bit rate mode : Constant
Bit rate : 2 500 kb/s
Width : 1 440 pixels
Height : 1 080 pixels
Display aspect ratio : 4:3
Frame rate mode : Constant
Frame rate : 25.000 FPS
Standard : PAL
Color space : YUV
Chroma subsampling : 4:2:0
Bit depth : 8 bits
Scan type : Progressive
Bits/(Pixel*Frame) : 0.064
Stream size : 548 MiB (95%)
Language : Russian
Default : Yes
Forced : No
Color range : Limited
Color primaries : BT.709
Transfer characteristics : BT.709
Matrix coefficients : BT.709

Audio
ID : 2
Format : AAC
Format/Info : Advanced Audio Codec
Format profile : LC
Codec ID : A_AAC-2
Duration : 30 min 40 s
Bit rate : 126 kb/s
Channel(s) : 2 channels
Channel positions : Front: L R
Sampling rate : 44.1 kHz
Frame rate : 43.066 FPS (1024 SPF)
Compression mode : Lossy
Stream size : 27.6 MiB (5%)
Language : Russian
Default : Yes
Forced : No











   Похожие торренты   Торрент   Размер 
В этой теме нет новых непрочитанных сообщений. Интервью Владимира Путина телеканалу NBC (Эфир от 10.03.2018)[2018, документальный, политика, WEB-DL 720p]

3 | 0

1.94 ГБ

В этой теме нет новых непрочитанных сообщений. Встреча Владимира Путина с доверенными лицами (30.01) (2018) HDTV 1080p от Files-x

0 | 0

2.19 ГБ

В этой теме нет новых непрочитанных сообщений. Инаугурация президента Российской Федерации Владимира Путина [эфир от 07.05] (2012) SATRip

0 | 3

1.92 ГБ

В этой теме нет новых непрочитанных сообщений. Инаугурация Президента Российской Федерации Владимира Путина [эфир от 07.05] (2012) SATRip

0 | 2

718.93 МБ

В этой теме нет новых непрочитанных сообщений. Новогоднее поздравление Президента РФ Владимира Путина (2013) DVB

7 | 2

79.65 МБ

В этой теме нет новых непрочитанных сообщений. Панарин И. Н. - Новая идеология Владимира Путина [21.03] (2012) CAMRip

4 | 3

503.71 МБ

В этой теме нет новых непрочитанных сообщений. Встреча Владимира Путина с руководителями российских СМИ [11.01] (2018) WEB-DL 720p

0 | 0

1.4 ГБ




Вы не можете начинать темы
Вы не можете отвечать на сообщения
Вы не можете редактировать свои сообщения
Вы не можете удалять свои сообщения
Вы не можете добавлять вложения

Перейти:  
 Вход
ppkBB3cker v.2 © 2008-2014 @ PPK
[ Time : 0.041s | 16 Queries | GZIP : Off ]

cron