img image001 image001 image001 image001 image001 image001 image001 image001 image001 image001 image001 image001 image001 image001 image001 image001

Planets Sun Sun Sun
Статистика раздачи
Автор: Снежана | Размер: 402.96 МБ | Добавлен: 09 апр 2018
Раздают: 3    Качают: 0
Скачать торрент
Скачать торрент
Описание торрента

СообщениеДобавлено: 09 апр 2018 

Бесогон ТВ. Голливуд как источник мужества
Оценка релиза: 
Перевод: Не требуется, cубтитры: отсутствуют
Формат: WEBRip 1080p, MKV, H.264, AAC
Страна: Россия
Режиссер: Никита Михалков
Жанр: телепередача, общественно-политическая программа
Продолжительность: 00:55:08
Год выпуска: 2018

Описание: Авторская Программа Никиты Михалкова Бесогон TV на канале Россия 24 выходит 1 или 2 раза в месяц.
Цель этого авторского канала, - поделится мыслями и опровергнуть домыслы появляющиеся в сети и не отражающие истинного мнения автора передачи, - Никиты Михалкова о том или ином событии.
Темы выпусков самые разные, но доминируют политика и общество.

В этом выпуске авторской программы «БесогонТВ» Никита Михалков предлагает поговорить о том, что увидели в послании В.В. Путина Федеральному собранию 1 марта люди, считающие себя «пацифистами». Что стоит за подобным «пацифизмом»? И какое понимание войны и мира, понимание жизни и смерти проповедуют США – страна, никогда не воевавшая на своей территории против внешнего врага? Что несет «сила добра» странам, которые не могут ничего противопоставить военной мощи так называемой демократии?


Видео: 1920x1080 (16:9), 25 fps, AVC MPEG-4 (High@L4) ~893 kbps, 0.01 bit/pixel
Аудио: 44.1 kHz, AAC, 2 ch, ~126 kbps


General
Unique ID : 192335438344718624028926072176232054257 (0x90B2753FFAA7704BB50130E29F9F3DF1)
Complete name : D:БесогонТВ Голливуд как источник мужества.mkv
Format : Matroska
Format version : Version 4 / Version 2
File size : 403 MiB
Duration : 55 min 8 s
Overall bit rate : 1 022 kb/s
Encoded date : UTC 2018-04-07 12:15:13
Writing application : mkvmerge v22.0.0 ('At The End Of The World') 64-bit
Writing library : libebml v1.3.5 + libmatroska v1.4.8
Cover : Yes
Attachments : cover.png

Video
ID : 1
Format : AVC
Format/Info : Advanced Video Codec
Format profile : High@L4
Format settings : CABAC / 3 Ref Frames
Format settings, CABAC : Yes
Format settings, ReFrames : 3 frames
Codec ID : V_MPEG4/ISO/AVC
Duration : 55 min 8 s
Bit rate : 893 kb/s
Width : 1 920 pixels
Height : 1 080 pixels
Display aspect ratio : 16:9
Frame rate mode : Constant
Frame rate : 25.000 FPS
Color space : YUV
Chroma subsampling : 4:2:0
Bit depth : 8 bits
Scan type : Progressive
Bits/(Pixel*Frame) : 0.017
Stream size : 352 MiB (87%)
Language : Russian
Default : Yes
Forced : No
Color range : Limited
Color primaries : BT.709
Transfer characteristics : BT.709
Matrix coefficients : BT.709

Audio
ID : 2
Format : AAC
Format/Info : Advanced Audio Codec
Format profile : LC
Codec ID : A_AAC-2
Duration : 55 min 8 s
Bit rate : 126 kb/s
Channel(s) : 2 channels
Channel positions : Front: L R
Sampling rate : 44.1 kHz
Frame rate : 43.066 FPS (1024 SPF)
Compression mode : Lossy
Stream size : 49.5 MiB (12%)
Language : Russian
Default : Yes
Forced : No







   Похожие торренты   Торрент   Размер 
В этой теме нет новых непрочитанных сообщений. Бесогон ТВ. Олимпиада. О спорт, ты – мир! Или война? (Эфир от 10.03.2018) (Никита Михалков) [2018, телепередача, общественно-политическая программа, WEBRip 1080p]

4 | 0

312.8 МБ

В этой теме нет новых непрочитанных сообщений. Бесогон ТВ. Сколько должно ещё сгореть людей? (Эфир от 20.04.2018 ) (Никита Михалков) [2018, телепередача, общественно-политическая программа, WEBRip 1080p]

7 | 0

849.66 МБ

В этой теме нет новых непрочитанных сообщений. Бесогон ТВ. Иллюстрация люстрации (Эфир от 02.02.2018) (Никита Михалков) [2018, документальный, авторская, информационно-аналитическая программа, WEBRip 1080p]

4 | 0

237.83 МБ

В этой теме нет новых непрочитанных сообщений. Бесогон ТВ. Письмо товарищу Сталину (Эфир от 16.02.2018) (Никита Михалков) [2018, документальный, авторская, информационно-аналитическая программа, WEBRip 1080p]

4 | 0

347.43 МБ

В этой теме нет новых непрочитанных сообщений. Никита Михалков [21.10] (2015) WEBRip 720p

9 | 1

1.07 ГБ

В этой теме нет новых непрочитанных сообщений. Право знать! Никита Михалков [04.11] (2017) WEBRip 810p

1 | 0

1.44 ГБ

В этой теме нет новых непрочитанных сообщений. Бесогон TV / Бесогон ТВ (Поле чудес в стране дураков) [2018, документальный, WEB-DLRip]

3 | 0

338.98 МБ




Вы не можете начинать темы
Вы не можете отвечать на сообщения
Вы не можете редактировать свои сообщения
Вы не можете удалять свои сообщения
Вы не можете добавлять вложения

Перейти:  
 Вход
ppkBB3cker v.2 © 2008-2014 @ PPK
[ Time : 0.045s | 16 Queries | GZIP : Off ]

cron