img image001 image001 image001 image001 image001 image001 image001 image001 image001 image001 image001 image001 image001 image001 image001 image001

Planets Sun Sun Sun
Статистика раздачи
Автор: Снежана | Размер: 9.2 ГБ | Добавлен: 09 окт 2018
Раздают: 0    Качают: 0
Скачать торрент
Скачать торрент
Описание торрента

СообщениеДобавлено: 09 окт 2018 

Информация о фильме
Название: Семейство Кардашьян
Оригинальное название: Keeping Up with the Kardashians
Год выпуска: 2018
Жанр: Реалити-шоу, драма
Режиссер: Крис Рэй, Дэвид Брезенхэм
В ролях: Хлоя Кардашьян, Кортни Кардашьян, Кимберли Кардашьян, Крис Дженнер, Кейтлин Дженнер, Кайли Дженнер, Кендалл Дженнер, Мэйсон Дэш Дисик, Малика, Ламар Одом
О фильме:
Хлоя тяжело переживает смерть отца. А вот ее сестру Кортни в замешательство приведет тест на беременность. Но волнения и трудности не заставляют членов семьи забывать о добрых делах, участвуя в благотворительной деятельности, семья помогает бездомному мужчине и казалось бы, все хорошо, но и здесь найдется место негативу — семейство оказывается вовлеченным в секс-скандал. Что дальше?

Страна: США
Студия: Bunim-Murray Productions (BMP), Ryan Seacrest Productions
Продолжительность: 7 x ~ 00:46:00
Перевод: Любительский многоголосый [ColdFilm]
Файл
Кодек: x264 (AVC)
Качество: WEBRip 720p
Видео: 3500 Кбит/с, 1280x720, 29.970 fps
Аудио: Русский (AC3, 2 ch, 128 Кбит/с)


General
Unique ID : 184858559809828595842826982896164785426 (0x8B1276AD455C85629ECEDCECA201CD12)
Complete name :Keeping.Up.with.the.Kardashians.S15E01.720p.ColdFilm.mkv
Format : Matroska
Format version : Version 2
File size : 1.15 GiB
Duration : 44 min 12 s
Overall bit rate : 3 712 kb/s
Encoded date : UTC 2018-09-20 10:02:45 / UTC 2017-11-20 18:25:40
Writing application : mkvmerge v3.3.0 ('Language') built on Mar 24 2010 14:59:24
Writing library : libebml v0.8.0 + libmatroska v0.9.0 / Lavf54.63.104
Video
ID : 1
Format : AVC
Format/Info : Advanced Video Codec
Format profile : Main@L3.1
Format settings : CABAC / 1 Ref Frames
Format settings, CABAC : Yes
Format settings, ReFrames : 1 frame
Codec ID : V_MPEG4/ISO/AVC
Duration : 44 min 12 s
Bit rate : 3 500 kb/s
Width : 1 280 pixels
Height : 720 pixels
Display aspect ratio : 16:9
Frame rate mode : Constant
Frame rate : 25.000 FPS
Color space : YUV
Chroma subsampling : 4:2:0
Bit depth : 8 bits
Scan type : Progressive
Bits/(Pixel*Frame) : 0.152
Stream size : 1.06 GiB (93%)
Writing library : x264 core 129
Default : No
Forced : No
Audio
ID : 2
Format : AC-3
Format/Info : Audio Coding 3
Codec ID : A_AC3
Duration : 44 min 12 s
Bit rate mode : Constant
Bit rate : 192 kb/s
Channel(s) : 2 channels
Channel positions : Front: L R
Sampling rate : 48.0 kHz
Frame rate : 31.250 FPS (1536 SPF)
Bit depth : 16 bits
Compression mode : Lossy
Stream size : 60.7 MiB (5%)
Service kind : Complete Main
Default : Yes
Forced : No

Релиз от:



   Похожие торренты   Торрент   Размер 
В этой теме нет новых непрочитанных сообщений. Семейство Кардашьян / Keeping Up with the Kardashians [15x01-06] (2018) WEBRip 720p | ColdFilm

0 | 0

6.89 ГБ

В этой теме нет новых непрочитанных сообщений. Семейство Кардашьян / Keeping Up with the Kardashians [15x01-06] (2018) WEBRip | ColdFilm

0 | 0

3.17 ГБ

В этой теме нет новых непрочитанных сообщений. Семейство Кардашьян / Keeping Up with the Kardashians [15x01-07] (2018) WEBRip | ColdFilm

0 | 0

4.23 ГБ

В этой теме нет новых непрочитанных сообщений. Семейство Кардашьян / Keeping Up with the Kardashians [S10-11] (2015) HDTVRip 720p | L2

0 | 1

17.71 ГБ

В этой теме нет новых непрочитанных сообщений. Семейство Кардашьян / Keeping Up with the Kardashians [12x01-16 из 18] (2016) HDTVRip 720p | L2

1 | 5

10.15 ГБ

В этой теме нет новых непрочитанных сообщений. Семейство Кардашьян / Keeping Up with the Kardashians [14x01 из 14] (2017) HDTVRip 720p | Sunshine Studio

0 | 0

1.96 ГБ

В этой теме нет новых непрочитанных сообщений. Семейство Кардашьян / Keeping Up with the Kardashians [14x01-05 из 14] (2017) HDTVRip 720p | Sunshine Studio

0 | 0

5.67 ГБ




Вы не можете начинать темы
Вы не можете отвечать на сообщения
Вы не можете редактировать свои сообщения
Вы не можете удалять свои сообщения
Вы не можете добавлять вложения

Перейти:  
cron
 Вход
ppkBB3cker v.2 © 2008-2014 @ PPK
[ Time : 0.019s | 15 Queries | GZIP : Off ]

cron