img image001 image001 image001 image001 image001 image001 image001 image001 image001 image001 image001 image001 image001 image001 image001 image001

Planets Sun Sun Sun
Статистика раздачи
Автор: Снежана | Размер: 863.42 МБ | Добавлен: 09 окт 2018
Раздают: 0    Качают: 0
Скачать торрент
Скачать торрент
Описание торрента

СообщениеДобавлено: 09 окт 2018 

Исполнитель: Игорь Демарин.
Жанр: POP
Год выпуска: 2018
Продолжительность: 00:58:50
Описание: В гостях у Владимира Глазунова народный артист Украины Игорь Демарин, прямой эфир 27 сентября 2018 года.
Формат: MKV
Качество: DVB
Видео кодек: H.264
Аудио кодек: MP2
Видео: H.264, ~1 800 Kbps, 720x576 (4:3), 25fps
Аудио: MP2, 48000Hz, 2ch, 192 kbps
Demarin_27.09.18.mkv
Format : Matroska
Format version : Version 4 / Version 2
File size : 863 MiB
Duration : 58 min 50 s
Overall bit rate : 2 052 kb/s
Writing application : Lavf57.71.100
Writing library : Lavf57.71.100
ErrorDetectionType : Per level 1
Video
ID : 1
Format : AVC
Format/Info : Advanced Video Codec
Format profile : High@L3
Format settings : CABAC / 4 Ref Frames
Format settings, CABAC : Yes
Format settings, ReFrames : 4 frames
Codec ID : V_MPEG4/ISO/AVC
Duration : 58 min 50 s
Bit rate : 1 819 kb/s
Width : 720 pixels
Height : 576 pixels
Display aspect ratio : 4:3
Frame rate mode : Constant
Frame rate : 25.000 FPS
Standard : Component
Color space : YUV
Chroma subsampling : 4:2:0
Bit depth : 8 bits
Scan type : Interlaced
Scan type, store method : Separated fields
Scan order : Top Field First
Bits/(Pixel*Frame) : 0.175
Stream size : 765 MiB (89%)
Default : Yes
Forced : No
Color range : Limited
Color primaries : BT.601 PAL
Transfer characteristics : BT.470 System B/G
Matrix coefficients : BT.470 System B/G
DURATION : 00:58:50,340000000
Audio
ID : 2
Format : MPEG Audio
Format version : Version 1
Format profile : Layer 2
Codec ID : A_MPEG/L2
Codec ID/Hint : MP2
Duration : 58 min 50 s
Bit rate mode : Constant
Bit rate : 192 kb/s
Channel(s) : 2 channels
Sampling rate : 48.0 kHz
Compression mode : Lossy
Delay relative to video : 16 ms
Stream size : 80.8 MiB (9%)
Language : Russian
Default : Yes
Forced : No
DURATION : 00:58:50,152000000



   Похожие торренты   Торрент   Размер 
В этой теме нет новых непрочитанных сообщений. Рожденные в СССР - Группа Маша и Медведи [29.01] (2018) DVB

0 | 0

1.53 ГБ

В этой теме нет новых непрочитанных сообщений. Игорь Демарин - Полночный Снег (1989) MP3

62 | 13

101.42 МБ

В этой теме нет новых непрочитанных сообщений. Рожденные в СССР - Алексей Глызин [22.06] (2017) DVB

16 | 5

1.28 ГБ

В этой теме нет новых непрочитанных сообщений. «Рождённые в СССР» - Ярослав Евдокимов [06.10] (2015) DVB

103 | 3

1.01 ГБ

В этой теме нет новых непрочитанных сообщений. Рожденные в СССР - Группа Лицей [04.04] (2017) DVB

11 | 3

1.48 ГБ

В этой теме нет новых непрочитанных сообщений. Рожденные в СССР - Сергей Беликов [29.05] (2017) DVB

7 | 1

976.04 МБ

В этой теме нет новых непрочитанных сообщений. Рожденные в СССР - Сергей Любавин [07.04] (2016) DVB

0 | 0

804.81 МБ




Вы не можете начинать темы
Вы не можете отвечать на сообщения
Вы не можете редактировать свои сообщения
Вы не можете удалять свои сообщения
Вы не можете добавлять вложения

Перейти:  
 Вход
ppkBB3cker v.2 © 2008-2014 @ PPK
[ Time : 0.029s | 15 Queries | GZIP : Off ]

cron