img image001 image001 image001 image001 image001 image001 image001 image001 image001 image001 image001 image001 image001 image001 image001 image001

Planets Sun Sun Sun
Статистика раздачи
Автор: Снежана | Размер: 11.92 ГБ | Добавлен: 09 окт 2018
Раздают: 0    Качают: 0
Скачать торрент
Скачать торрент
Описание торрента

СообщениеДобавлено: 09 окт 2018 

Название: Всё или ничего: Даллас Ковбойс
Оригинальное название: The Dallas Cowboys
Год выпуска: 2018
Жанр: Документальный, спорт
Режиссер: Джей Джексон, Террелл Райли, Шеннон Фурман
В ролях: Джерри Джонс, Дез Брайант, Коул Бизли, Джейсон Гаррет, Стивен Джонс, Дак Пресскот, Джейсон Уиттен, Гэри Браун, Эзекиель Эллиот, Скотт Линехан, Дерек Дули, Шарлотта Джонс Андерсон, Джерри Джонс-мл., Демаркус Лоуренс
О фильме:
Документальная лента расскажет о далласской футбольной командой, которая входит в сезон 2017 года с целью выиграть Суперкубок, однако всё идёт не по их сценарию.

Страна: США
Студия: NFL Films
Продолжительность: 8 x ~ 00:55:00
Перевод: Любительский многоголосый закадровый [ColdFilm]
Файл
Кодек: x264 (AVC)
Качество: WEBRip 720p
Видео: 4000 Кбит/с, 1280x720, 25.000 fps
Аудио: Русский (AC3, 2 ch, 192 Кбит/с)


General
Unique ID : 227411942353271382651080278781166928060 (0xAB15F26B3EF4D718B9A988FBFF80C0BC)
Complete name : All.or.Nothing.S03E01.720p.ColdFilm.mkv
Format : Matroska
Format version : Version 2
File size : 1.51 GiB
Duration : 51 min 48 s
Overall bit rate : 4 183 kb/s
Writing application : Lavf54.63.104
Writing library : Lavf54.63.104
Video
ID : 1
Format : AVC
Format/Info : Advanced Video Codec
Format profile : Main@L3.1
Format settings : CABAC / 1 Ref Frames
Format settings, CABAC : Yes
Format settings, ReFrames : 1 frame
Codec ID : V_MPEG4/ISO/AVC
Duration : 51 min 48 s
Bit rate : 4 000 kb/s
Width : 1 280 pixels
Height : 720 pixels
Display aspect ratio : 16:9
Frame rate mode : Constant
Frame rate : 25.000 FPS
Color space : YUV
Chroma subsampling : 4:2:0
Bit depth : 8 bits
Scan type : Progressive
Bits/(Pixel*Frame) : 0.174
Stream size : 1.41 GiB (93%)
Writing library : x264 core 129
Encoding settings : cabac=1 / ref=1 / deblock=1:0:0 / analyse=0x1:0x131 / me=dia / subme=2 / psy=1 / psy_rd=1.00:0.00 / mixed_ref=0 / me_range=16 / chroma_me=1 / trellis=0 / 8x8dct=0 / cqm=0 / deadzone=21,11 / fast_pskip=1 / chroma_qp_offset=0 / threads=8 / lookahead_threads=1 / sliced_threads=0 / nr=0 / decimate=1 / interlaced=0 / bluray_compat=0 / constrained_intra=0 / bframes=0 / weightp=2 / keyint=250 / keyint_min=25 / scenecut=40 / intra_refresh=0 / rc_lookahead=40 / rc=abr / mbtree=1 / bitrate=4000 / ratetol=1.0 / qcomp=0.60 / qpmin=10 / qpmax=51 / qpstep=4 / ip_ratio=1.41 / aq=1:1.00
Default : Yes
Forced : No
Audio
ID : 2
Format : AC-3
Format/Info : Audio Coding 3
Codec ID : A_AC3
Duration : 51 min 48 s
Bit rate mode : Constant
Bit rate : 192 kb/s
Channel(s) : 2 channels
Channel positions : Front: L R
Sampling rate : 48.0 kHz
Frame rate : 31.250 FPS (1536 SPF)
Bit depth : 16 bits
Compression mode : Lossy
Stream size : 71.2 MiB (5%)
Service kind : Complete Main
Default : Yes
Forced : No

Релиз от:



   Похожие торренты   Торрент   Размер 
В этой теме нет новых непрочитанных сообщений. Всё или ничего: Даллас Ковбойс / All or Nothing: The Dallas Cowboys [S01] (2018) WEBRip | ColdFilm

0 | 0

5.41 ГБ

В этой теме нет новых непрочитанных сообщений. Даллас и Робо / Dallas & Robo [S01] (2018) WEBRip 720p | ColdFilm

3 | 1

5.34 ГБ

В этой теме нет новых непрочитанных сообщений. Даллас и Робо / Dallas & Robo [S01] (2018) WEBRip | ColdFilm

13 | 6

2.16 ГБ

В этой теме нет новых непрочитанных сообщений. Даллас и Робо / Dallas & Robo [01x01 из 8] (2018) WEBRip 1080p | NewStation

0 | 0

1021.25 МБ

В этой теме нет новых непрочитанных сообщений. Даллас и Робо , 1 сезон 1 серия из 8 / Dallas & Robo [NewStation] (Энтони Стакки) [2018, Комедия, приключения, фантастика, WEBRip 1080p] DVO

4 | 0

481.74 МБ

В этой теме нет новых непрочитанных сообщений. Даллас и Робо , 1 сезон 1-3 серии из 8 / Dallas & Robo [NewStation] (Энтони Стакки) [2018, Комедия, приключения, фантастика, WEBRip 1080p] DVO

2 | 9

1.64 ГБ

В этой теме нет новых непрочитанных сообщений. Даллас и Робо , 1 сезон 1-7 серии из 8 / Dallas & Robo [NewStation] (Энтони Стакки) [2018, Комедия, приключения, фантастика, WEBRip 1080p] DVO

0 | 0

3.66 ГБ




Вы не можете начинать темы
Вы не можете отвечать на сообщения
Вы не можете редактировать свои сообщения
Вы не можете удалять свои сообщения
Вы не можете добавлять вложения

Перейти:  
 Вход
ppkBB3cker v.2 © 2008-2014 @ PPK
[ Time : 0.070s | 15 Queries | GZIP : Off ]

cron