img image001 image001 image001 image001 image001 image001 image001 image001 image001 image001 image001 image001 image001 image001 image001

Planets Sun Sun Sun
Статистика раздачи
Автор: Снежана | Размер: 1.99 ГБ | Добавлен: 13 май 2019
Раздают: 0    Качают: 0
Скачать торрент
Скачать торрент
Описание торрента

СообщениеДобавлено: 13 май 2019 

Территория заблуждений с Игорем Прокопенко (Эфир от 11.05.2019)


Перевод: Не требуется, cубтитры: отсутствуют
Формат: WEB-DL 1080р, MP4, AVC, AAC
Страна: Россия
Режиссер: Фёдор Калугин
Жанр: документальный
Продолжительность: ~ 01:30:00
Год выпуска: 2019

Ведущий: Игорь Прокопенко

Описание: Каждый день приносит научные сенсации, которые противоречат нашим привычным знаниям. Невероятные находки археологов опровергают учебники истории. Новейшие открытия астрономов начисто ломают знания о жизни Вселенной. А последние исследования медиков - рушат, казалось бы, незыблемые истины даже о жизни и смерти. В результате даже ученые все чаще приходят к неутешительному выводу - знания, накопленные человечеством на сегодняшний день - не более, чем территория заблуждений.



Видео: 1920x1080 (16:9), 25 fps, AVC Baseline@L3, ~2768 Kbps (0.053 bit/pixel)
Аудио: 48 kHz, AAC, 2/0 (L,R) ch, ~192.00 kbps avg

Доп. информация:
Скриншоты взяты с предыдущих выпусков.

Общее
Полное имя : F:\2\Территория заблуждений с Игорем Прокопенко 11.05.19_(1080р).mp4
Формат : MPEG-4
Профиль формата : Base Media
Идентификатор кодека : isom (isom/iso2/avc1/mp41)
Размер файла : 1,99 Гбайт
Продолжительность : 1 ч. 35 м.
Общий поток : 2973 Кбит/сек
Программа кодирования : Lavf57.37.101

Видео
Идентификатор : 1
Формат : AVC
Формат/Информация : Advanced Video Codec
Профиль формата : Baseline@L3
Настройки формата : 1 Ref Frames
Параметр CABAC формата : Нет
Параметр RefFrames формата : 1 кадр
Идентификатор кодека : avc1
Идентификатор кодека/Информация : Advanced Video Coding
Продолжительность : 1 ч. 35 м.
Битрейт : 2768 Кбит/сек
Ширина : 1920 пикселей
Высота : 1080 пикселей
Соотношение сторон : 16:9
Режим частоты кадров : Постоянный
Частота кадров : 25,000 кадров/сек
Цветовое пространство : YUV
Субдискретизация насыщенности : 4:2:0
Битовая глубина : 8 бит
Тип развёртки : Прогрессивная
Бит/(Пиксели*Кадры) : 0.053
Размер потока : 1,86 Гбайт (93%)
Библиотека кодирования : x264 core 148 r2694 3b70645
Настройки программы : cabac=0 / ref=1 / deblock=1:0:0 / analyse=0x1:0x111 / me=hex / subme=7 / psy=1 / psy_rd=1.00:0.00 / mixed_ref=0 / me_range=16 / chroma_me=1 / trellis=1 / 8x8dct=0 / cqm=0 / deadzone=21,11 / fast_pskip=1 / chroma_qp_offset=-2 / threads=30 / lookahead_threads=5 / sliced_threads=0 / nr=0 / decimate=1 / interlaced=0 / bluray_compat=0 / constrained_intra=0 / bframes=0 / weightp=0 / keyint=250 / keyint_min=25 / scenecut=40 / intra_refresh=0 / rc_lookahead=40 / rc=abr / mbtree=1 / bitrate=2768 / ratetol=1.0 / qcomp=0.60 / qpmin=0 / qpmax=69 / qpstep=4 / ip_ratio=1.40 / aq=1:1.00

Аудио
Идентификатор : 2
Формат : AAC
Формат/Информация : Advanced Audio Codec
Профиль формата : LC
Идентификатор кодека : mp4a-40-2
Продолжительность : 1 ч. 35 м.
Вид битрейта : Постоянный
Битрейт : 192 Кбит/сек
Каналы : 2 канала
Расположение каналов : Front: L R
Частота : 48,0 КГц
Частота кадров : 46,875 кадров/сек (1024 SPF)
Метод сжатия : С потерями
Размер потока : 132 Мбайт (6%)
Default : Да
AlternateGroup/String : 1

Прочее
Идентификатор : 3
Тип : Time code
Формат : QuickTime TC
Продолжительность : 1 ч. 35 м.
Временной код первого кадра : 01:00:00:00
Временной код, чередующийся : Да
Язык : English
Default : Нет



   Похожие торренты   Торрент   Размер 
В этой теме нет новых непрочитанных сообщений. Территория заблуждений с Игорем Прокопенко (Эфир от 18.05.2019) (Рен ТВ) [2019, документальный, WEB-DL 1080р]

0 | 0

1.98 ГБ

В этой теме нет новых непрочитанных сообщений. Территория заблуждений с Игорем Прокопенко (Эфир от 02.03.2019) (Рен ТВ) [2019, документальный, WEB-DL 1080р]

0 | 4

2.21 ГБ

В этой теме нет новых непрочитанных сообщений. Территория заблуждений с Игорем Прокопенко (Эфир от 16.02.2019) (Рен ТВ) [2019, документальный, WEB-DL 1080р]

0 | 3

1.19 ГБ

В этой теме нет новых непрочитанных сообщений. Территория заблуждений с Игорем Прокопенко (Эфир от 27.04.2019) (Рен ТВ) [2019, документальный, WEB-DL 1080р]

2 | 0

1.99 ГБ

В этой теме нет новых непрочитанных сообщений. Территория заблуждений с Игорем Прокопенко (Эфир от 25.05.2019) (Рен ТВ) [2019, документальный, WEB-DL 1080р]

2 | 0

1.98 ГБ

В этой теме нет новых непрочитанных сообщений. Территория заблуждений с Игорем Прокопенко (Эфир от 04.05.2019) (Рен ТВ) [2019, документальный, WEB-DL 1080р]

3 | 0

1.99 ГБ

В этой теме нет новых непрочитанных сообщений. Территория заблуждений с Игорем Прокопенко (Эфир от 13.04.2019) (Рен ТВ) [2019, документальный, SATRip]

1 | 1

1.47 ГБ




Вы не можете начинать темы
Вы не можете отвечать на сообщения
Вы не можете редактировать свои сообщения
Вы не можете удалять свои сообщения
Вы не можете добавлять вложения

Перейти:  
 Вход
ppkBB3cker v.2 © 2008-2014 @ PPK
[ Time : 0.024s | 15 Queries | GZIP : Off ]

cron