img image001 image001 image001 image001 image001 image001 image001 image001 image001 image001 image001 image001 image001 image001 image001

Planets Sun Sun Sun
Статистика раздачи
Автор: Снежана | Размер: 1.05 ГБ | Добавлен: 25 июл 2013
Раздают: 2    Качают: 11
Скачать торрент
Скачать торрент
Описание торрента

СообщениеДобавлено: 25 июл 2013 

#77

Выпущено: ПЦ Мастерская, Россия
Год выхода: 2009
Жанр: Документальный / Познавательный
Продолжительность: 00:51:31
Перевод: Оригинал
Режиссер: Юлия Рябкова
В ролях: Анатолий Волков (диетолог), Алексей Ковальков (врач-диетолог), Татьяна Ефимова (главный редактор журнала "Здоровье"), Ольга Григорян (ведущий научный сотрудник Клиники НИИ питания РАМН), Вера Ревякина (профессор, доктор мед. наук, детский аллерголог-иммунолог), Валентина Золотухина (заведующая производством Клиники НИИ питания РАМН), Юнна Попова (врач высшей категории, кандидат медицинских наук Клиники НИИ питания РАМН), Юлия Чехонина (врач-гастроэнтеролог Клиники НИИ питания РАМН), Олег Гладышев (кандидат медицинских наук, врач-психотерапевт) и др.



Документальный фильм "Что съесть, чтобы похудеть" развеивает слухи о еде, и проливает свет на продуктовые тайны. Из каких составляющих складывается здоровое питание? Как оно защищает от всевозможных недугов? Действительно ли можно изменить жизнь, изменив отношение к такой простой вещи, как еда? Опираясь на последние научные разработки в области биологии и медицины, авторы фильма расскажут, КАК нужно есть, чтобы сохранить молодость, интерес к жизни и здоровый блеск в глазах. А так же ЧЕМ нужно питаться, чтобы избавится от проблемной кожи, слоящихся ногтей и даже плохого настроения.



Формат: MPEG
Качество: SatRemux
Видео: MPEG2 Video 768x576 (4:3) 25.00fps 2911Kbps
Звук: MPEG Audio 48000Hz stereo 192Kbps
General
Complete name : D:CinemaChto.est.chtobi.pohudet.2009.SatRemux.mpg
Format : MPEG-PS
File size : 1.05 GiB
Duration : 51mn 31s
Overall bit rate : 2 911 Kbps
Writing library : encoded by TMPGEnc MPEG Editor 3 Version 3.0.7.81

Video
ID : 224 (0xE0)
Format : MPEG Video
Format version : Version 2
Format profile : Main@Main
Format settings, Matrix : Default
Duration : 51mn 31s
Bit rate mode : Variable
Bit rate : 2 603 Kbps
Nominal bit rate : 15.0 Mbps
Width : 704 pixels
Height : 576 pixels
Display aspect ratio : 4:3
Frame rate : 25.000 fps
Standard : PAL
Colorimetry : 4:2:0
Scan type : Interlaced
Scan order : Top Field First
Bits/(Pixel*Frame) : 0.257
Stream size : 959 MiB (89%)
Writing library : TMPGEnc MPEG Editor

Audio
ID : 192 (0xC0)
Format : MPEG Audio
Format version : Version 1
Format profile : Layer 2
Duration : 51mn 30s
Bit rate mode : Constant
Bit rate : 192 Kbps
Channel(s) : 2 channels
Sampling rate : 48.0 KHz
Resolution : 16 bits
Stream size : 70.7 MiB (7%)



   Похожие торренты   Торрент   Размер 
В этой теме нет новых непрочитанных сообщений. Угрызения 3: Всё, что вы можете съесть / Eating Out 3: All You Can Eat (2009) DVDRip

3 | 7

698.38 МБ

В этой теме нет новых непрочитанных сообщений. Маргарита Королева - Похудеть навсегда! (2009) MP3

96 | 5

544.66 МБ

В этой теме нет новых непрочитанных сообщений. Екатерина Мириманова - Сборник книг для тех, кто хочет похудеть (2007-2009) PDF, DJVU

139 | 23

148.13 МБ

В этой теме нет новых непрочитанных сообщений. Дмитрий Кот - Копирайтинг: как не съесть собаку (2012) RTF

281 | 3

12.86 МБ

В этой теме нет новых непрочитанных сообщений. Теория заговора. Съесть нельзя выбросить [27.08] (2016) HDTVRip от GeneralFilm

110 | 8

550.61 МБ

В этой теме нет новых непрочитанных сообщений. Коробач Л. Р. - Похудеть? Не проблема! (2006) RTF

6 | 1

21.62 МБ

В этой теме нет новых непрочитанных сообщений. Г.С.Выдревич - Ем, чтобы похудеть! (2008) PDF

3 | 13

4.71 МБ




Вы не можете начинать темы
Вы не можете отвечать на сообщения
Вы не можете редактировать свои сообщения
Вы не можете удалять свои сообщения
Вы не можете добавлять вложения

Перейти:  
Для Мосгорсуда, Роскомнадзора и рекламодателей: mosgorsud-torrent[собачка]yandex.ru
 Вход
ppkBB3cker v.2 © 2008-2014 @ PPK
[ Time : 0.042s | 16 Queries | GZIP : Off ]

Торрент трекер RUTOR.IN, Не можете зайти на rutor.org? Какой новый адрес рутор? Какое зеркало рутор? Не работает rutor.org и зеркала? Тогда наш торрент специально для вас. Rutor.in неофициальное зеркало rutor. В случае если у Вас заблокирован rutor или вдруг Вы не можете на него зайти, то Вы без труда сможете скачать бесплатно и без рекламы последние новинки кино, игр, сериалов и прочего у нас, на Rutor.in. Не нужно использовать прокси, чтобы зайти на рутор, достаточно воспользоваться нашим ресурсом. Все новые фильмы, игры, сериалы, книги и музыка за 2013 и 2014 годы через торрент бесплатно. Скачивайте фильмы в хорошем качестве, игры для пк, xbox, playstation без регистрации. У нас вы найдете новые Зарубежные сериалы и Русские сериалы 2013, 2014, 2015 годов. Оставайтесь с нами, качайте любимые фильмы, игры, сериалы, книги и музыку.