img image001 image001 image001 image001 image001 image001 image001 image001 image001 image001 image001 image001 image001 image001 image001

Planets Sun Sun Sun
Статистика раздачи
Автор: Снежана | Размер: 986.88 МБ | Добавлен: 26 июл 2013
Раздают: 0    Качают: 11
Скачать торрент
Скачать торрент
Описание торрента

СообщениеДобавлено: 26 июл 2013 

#77

Год выпуска: 2006
Страна: США
Жанр: Документальный
Перевод: Отсутствует
Продолжительность: 00:26:46

Режиссер: Том Ридерер / Tom Riederer

В ролях: Группа альпинистов

Описание: В этом стереофильме вы увидите попытку покорения вершины самой высокой горы Северной Америки. Гора Денали, также известная как Мак-Кинли, имеет высоту 20320 футов и является одной из семи высочайших вершин мира.
Фильм содержит множество технических подробностей о снаряжении альпинистов и технике восхождения. Он будет интересен не только любителям стереокино, а также специалистам в области скалолазания.

Качество: DVDRip
Формат: AVI
Видео кодек: XviD
Аудио кодек: MP3
Видео: Xvid, 720x480, 29.97fps, 3636 Kbps
Аудио: PCM, 48000Hz, stereo, 1536kbps

Доп. информация: Это стереоскопическая версия фильма, 3D, стерео, объёмная, смотреть в очках со светофильтрами "Красный" - "Сине-зелёный(Cyan)"
















MediaInfo
General
Format: AVI
Format/Info: Audio Video Interleave
File size: 987 MiB
Duration: 26mn 46s
Overall bit rate: 5 152 Kbps
Writing application: VirtualDubMod 1.5.10.2 (build 2540/release)
Writing library: VirtualDubMod build 2540/release

Video
ID: 0
Format: MPEG-4 Visual
Format profile: Advanced Simple@L5
Format settings, BVOP: Yes
Format settings, QPel: No
Format settings, GMC: No warppoints
Format settings, Matrix: Default (H.263)
Muxing mode: Packed bitstream
Codec ID: XVID
Codec ID/Hint: XviD
Duration: 26mn 46s
Bit rate: 3 636 Kbps
Width: 720 pixels
Height: 480 pixels
Display aspect ratio: 1.500
Frame rate: 29.970 fps
Standard: NTSC
Resolution: 8 bits
Colorimetry: 4:2:0
Scan type: Progressive
Bits/(Pixel*Frame): 0.351
Stream size: 696 MiB (71%)
Writing library: XviD 1.2.1 (UTC 2008-12-04)

Audio
Format: PCM
Format settings, Endianness: Little
Format settings, Sign: Unsigned
Codec ID: 1
Codec ID/Hint: Microsoft
Duration: 26mn 13s
Bit rate mode: Constant
Bit rate: 1 536 Kbps
Channel(s): 2 channels
Sampling rate: 48.0 KHz
Resolution: 16 bits
Stream size: 288 MiB (29%)
Interleave, duration: 34 ms (1.02 video frame)
Interleave, preload duration: 500 ms

Другие раздачи в формате 3D-video: http://rutor.org/search/0/0/000/0/3D-video



   Похожие торренты   Торрент   Размер 
В этой теме нет новых непрочитанных сообщений. Натали / Natalie (2010) DVDRip | 3D-Video - Анаглиф

4 | 31

1.55 ГБ

В этой теме нет новых непрочитанных сообщений. Пастырь 3D / Priest 3D (2011) DVDRip от TTracker | 3D-Video (Анаглиф)

10 | 4

1.56 ГБ

В этой теме нет новых непрочитанных сообщений. Bjork - Wanderlust 3d Anaglyph (Анаглиф) (2008) DVDRip | 3D-Video

3 | 2

188.29 МБ

В этой теме нет новых непрочитанных сообщений. Гибрид / Hybrid (2010) DVDRip - F-Torrent | 3D-video [Анаглиф] | Лицензия

17 | 5

1.37 ГБ

В этой теме нет новых непрочитанных сообщений. Война Богов: Бессмертные / Immortals (2011) DVDRip | 3D-Video / Анаглиф

27 | 4

1.35 ГБ

В этой теме нет новых непрочитанных сообщений. Ронал-варвар / Ronal barbaren (2011) DVDRip от F-Torrent | 3D-Video / Анаглиф

10 | 2

1.37 ГБ

В этой теме нет новых непрочитанных сообщений. Битва за планету Терра 3D / Battle for Terra 3D (2009) DVDRip от TTracker | 3D VIDEO [Анаглиф]

4 | 3

1.31 ГБ




Вы не можете начинать темы
Вы не можете отвечать на сообщения
Вы не можете редактировать свои сообщения
Вы не можете удалять свои сообщения
Вы не можете добавлять вложения

Перейти:  
Для Мосгорсуда, Роскомнадзора и рекламодателей: mosgorsud-torrent[собачка]yandex.ru
 Вход
ppkBB3cker v.2 © 2008-2014 @ PPK
[ Time : 0.722s | 15 Queries | GZIP : Off ]

Торрент трекер RUTOR.IN, Не можете зайти на rutor.org? Какой новый адрес рутор? Какое зеркало рутор? Не работает rutor.org и зеркала? Тогда наш торрент специально для вас. Rutor.in неофициальное зеркало rutor. В случае если у Вас заблокирован rutor или вдруг Вы не можете на него зайти, то Вы без труда сможете скачать бесплатно и без рекламы последние новинки кино, игр, сериалов и прочего у нас, на Rutor.in. Не нужно использовать прокси, чтобы зайти на рутор, достаточно воспользоваться нашим ресурсом. Все новые фильмы, игры, сериалы, книги и музыка за 2013 и 2014 годы через торрент бесплатно. Скачивайте фильмы в хорошем качестве, игры для пк, xbox, playstation без регистрации. У нас вы найдете новые Зарубежные сериалы и Русские сериалы 2013, 2014, 2015 годов. Оставайтесь с нами, качайте любимые фильмы, игры, сериалы, книги и музыку.
cron