img image001 image001 image001 image001 image001 image001 image001 image001 image001 image001 image001 image001 image001 image001 image001

Planets Sun Sun Sun
Статистика раздачи
Автор: Снежана | Размер: 941.36 МБ | Добавлен: 26 июл 2013
Раздают: 34    Качают: 12
Скачать торрент
Скачать торрент
Описание торрента

СообщениеДобавлено: 26 июл 2013 

#77

Информация о фильме
Название: Федор Емельяненко - Секрет успеха
Год выхода: 2007
Жанр: Спорт, MMA

О фильме:
Русский характер - это рассказ о староооскольском бойце, чемпионе мира по боям без правил по версии "Pride", Фёдоре Емельяненко. Этот фильм был показан на "Старооскольском телевидении" и повествует о пути Федора от самых ранних его выступлений и начала занятий спортом до чемпионского пьедестала. В нем вы увидите много интервью с самим Федором, а так же мнения его друзей, семьи и тренеров, всех тех людей которые помогали ему в течение жизни.

http://efedor.ru/

Файл
Формат: AVI
Качество: TVRip
Видео: MS MPEG4 v2, 640x480 (4/3), 29.97 fps, ~1164 Kbps avg, 0.13 bit/pixel
Аудио: MPEG Audio Layer 3 44100Hz mono 320kbps
Продолжительность: 01:28:42
Перевод: Не требуется

Complete name : D:TorrentsCompleteFedor.Emeljanenko.Sekret.Uspeha.2007.TVRip.avi
Format : AVI
Format/Info : Audio Video Interleave
File size : 941 MiB
Duration : 1h 28mn
Overall bit rate : 1 484 Kbps
Writing application : Lavf52.31.0

Video
ID : 0
Format : MPEG-4 Visual
Codec ID : MP42
Codec ID/Info : Microsoft MPEG-4 v2 (pre-standard)
Codec ID/Hint : Microsoft
Duration : 1h 28mn
Bit rate : 1 150 Kbps
Width : 640 pixels
Height : 480 pixels
Display aspect ratio : 4:3
Frame rate : 29.970 fps
Bits/(Pixel*Frame) : 0.125
Stream size : 730 MiB (78%)

Audio
ID : 1
Format : MPEG Audio
Format version : Version 1
Format profile : Layer 3
Codec ID : 55
Codec ID/Hint : MP3
Duration : 1h 28mn
Bit rate mode : Constant
Bit rate : 320 Kbps
Channel(s) : 1 channel
Sampling rate : 44.1 KHz
Stream size : 203 MiB (22%)
Alignment : Aligned on interleaves
Interleave, duration : 26 ms (0.78 video frame)
Interleave, preload duration : 52 ms
Writing library : LAME3.99 (alpha)

Семпл


Релиз: Рипер.АМ



   Похожие торренты   Торрент   Размер 
В этой теме нет новых непрочитанных сообщений. Федор Емельяненко - все бои (2009) DVDRip

195 | 22

5.95 ГБ

В этой теме нет новых непрочитанных сообщений. Федор Емельяненко. Перед боем (2011) PDTV

0 | 2

259.96 МБ

В этой теме нет новых непрочитанных сообщений. Федор Емельяненко vs Фабрисио Вердума (2010) SATRip

0 | 1

1.37 ГБ

В этой теме нет новых непрочитанных сообщений. Strikeforce - Фёдор Емельяненко vs. Антонио Сильва (2011) SATRip

3 | 3

866 МБ

В этой теме нет новых непрочитанных сообщений. Последний бой Императора - Фёдор Емельяненко [Эфир от 16.06] (2012) WEBRip

12 | 4

737.13 МБ

В этой теме нет новых непрочитанных сообщений. Смешанные единоборства. Фёдор Емельяненко. Перед боем [22.07] (2016) WEBRip-AVC

1 | 1

92.22 МБ

В этой теме нет новых непрочитанных сообщений. Смешанные единоборства. Фёдор Емельяненко. Перед боем [22.07] (2016) WEBRip-AVC

45 | 1

135.61 МБ




Вы не можете начинать темы
Вы не можете отвечать на сообщения
Вы не можете редактировать свои сообщения
Вы не можете удалять свои сообщения
Вы не можете добавлять вложения

Перейти:  
Для Мосгорсуда, Роскомнадзора и рекламодателей: mosgorsud-torrent[собачка]yandex.ru
 Вход
ppkBB3cker v.2 © 2008-2014 @ PPK
[ Time : 0.088s | 14 Queries | GZIP : Off ]

Торрент трекер RUTOR.IN, Не можете зайти на rutor.org? Какой новый адрес рутор? Какое зеркало рутор? Не работает rutor.org и зеркала? Тогда наш торрент специально для вас. Rutor.in неофициальное зеркало rutor. В случае если у Вас заблокирован rutor или вдруг Вы не можете на него зайти, то Вы без труда сможете скачать бесплатно и без рекламы последние новинки кино, игр, сериалов и прочего у нас, на Rutor.in. Не нужно использовать прокси, чтобы зайти на рутор, достаточно воспользоваться нашим ресурсом. Все новые фильмы, игры, сериалы, книги и музыка за 2013 и 2014 годы через торрент бесплатно. Скачивайте фильмы в хорошем качестве, игры для пк, xbox, playstation без регистрации. У нас вы найдете новые Зарубежные сериалы и Русские сериалы 2013, 2014, 2015 годов. Оставайтесь с нами, качайте любимые фильмы, игры, сериалы, книги и музыку.