img image001 image001 image001 image001 image001 image001 image001 image001 image001 image001 image001 image001 image001 image001 image001

Planets Sun Sun Sun
Статистика раздачи
Автор: Снежана | Размер: 1.29 ГБ | Добавлен: 25 июл 2013
Раздают: 25    Качают: 19
Скачать торрент
Скачать торрент
Описание торрента

СообщениеДобавлено: 25 июл 2013 

#77

«Они были прокляты и убиты там. И забыты здесь. И еще неизвестно, что страшнее...»
______________________________________________________________________
[font=Georgia]
Информация о фильме:

Название: Прокляты и забыты
Год выхода: 1997
Жанр: Документальный
______________________________________________________________________

Режиссер: Сергей Говорухин, Инна Ванеева
Сценаристы: Сергей Говорухин
Операторы: Виталий Вих, Михаил Симаков, Юрий Романов, Вадим Андреев
Текст читают: Юрий Беляев, Диляра Сосновская
______________________________________________________________________

Описание: Сегодняшние войны неправедны. На них воюют обреченные. Несколько тысяч обреченных в многомиллионной стране. Уцелевшим, вернувшимся с войны солдатам уже не вписаться в эту действительность. Жившим по законам совести, им не найти места на этой ярмарке тщеславия. И потому их война не окончена.
Для чего я говорю об этом? Что пытаюсь доказать? Мир давно сузился до размеров малогабаритного счастья и границы его непоколебимы. Мы были гражданами страны. Плохой, хорошей ли, но страны. Мы стали гражданами квартиры.

Этот фильм снимался в зоне боевых действий. Сергей Говорухин, лишившийся в Чечне ноги, построил картину на контрастах. Боевые сцены, страдания раненых, гражданских лиц, изувеченная техника и изувеченные трупы перемежаются сценами развлекающихся людей в московских ночных клубах и дискотеках. Кому кровь и смерть, а кому ананасы и полуголые девицы и парни. (Иванов М.)

______________________________________________________________________

Страна:
Выпущено: Киностудия "Ровитич"
Продолжительность: 01:13:14
Перевод: Не требуется
______________________________________________________________________



Format : AVI
Format/Info : Audio Video Interleave
File size : 1.29 GiB
Duration : 1h 13mn
Overall bit rate : 2 528 Kbps
Writing application : VirtualDubMod 1.5.10.2 (build 2540/release)

Video
ID : 0
Format : MPEG-4 Visual
Format profile : Advanced Simple@L5
Format settings, BVOP : Yes
Format settings, QPel : No
Format settings, GMC : No warppoints
Format settings, Matrix : Default (H.263)
Codec ID : XVID
Codec ID/Hint : XviD
Duration : 1h 13mn
Bit rate : 2 326 Kbps
Width : 656 pixels
Height : 504 pixels
Display aspect ratio : 4:3
Frame rate : 25.000 fps
Color space : YUV
Chroma subsampling : 4:2:0
Bit depth : 8 bits
Scan type : Progressive
Bits/(Pixel*Frame) : 0.281
Stream size : 1.19 GiB (92%)
Writing library : XviD 1.2.1 (UTC 2008-12-04)

Audio
ID : 1
Format : AC-3
Format/Info : Audio Coding 3
Mode extension : CM (complete main)
Codec ID : 2000
Duration : 1h 13mn
Bit rate mode : Constant
Bit rate : 192 Kbps
Channel(s) : 2 channels
Channel positions : Front: L R
Sampling rate : 48.0 KHz
Bit depth : 16 bits
Stream size : 101 MiB (8%)
Alignment : Aligned on interleaves
Interleave, duration : 40 ms (1.00 video frame)
Interleave, preload duration : 512 ms

______________________________________________________________________


______________________________________________________________________

Качество: DVDRip /Исходник DVD5/
Формат: AVI
Видео кодек: XviD
Аудио кодек: AC3
Видео: 656x504 (1.30:1), 25 fps, XviD build 50 ~2325 kbps avg, 0.28 bit/pixel
Аудио: 48 kHz, AC3 Dolby Digital, 2/0 (L,R) ch, ~192.00 kbps avg
Субтитры: Нет
Навигация по главам: Нет
______________________________________________________________________







   Похожие торренты   Торрент   Размер 
В этой теме нет новых непрочитанных сообщений. Артемизия / Artemisia (1997) DVDRip | L1

24 | 1

694.75 МБ

В этой теме нет новых непрочитанных сообщений. Ярость / The Rage (1997) DVDRip | A

0 | 0

1.48 ГБ

В этой теме нет новых непрочитанных сообщений. Истерия / Hysteria (1997) DVDRip | A

0 | 0

1.46 ГБ

В этой теме нет новых непрочитанных сообщений. Флаббер / Flubber (1997) DVDRip | D

9 | 1

1.37 ГБ

В этой теме нет новых непрочитанных сообщений. Артемизия / Artemisia (1997) DVDRip | Sub

87 | 11

1.46 ГБ

В этой теме нет новых непрочитанных сообщений. Маркиза / Marquise (1997) DVDRip | A

0 | 0

1.46 ГБ

В этой теме нет новых непрочитанных сообщений. Амнезия / The Blackout (1997) DVDRip-AVC | P2, A

51 | 15

2.24 ГБ




Вы не можете начинать темы
Вы не можете отвечать на сообщения
Вы не можете редактировать свои сообщения
Вы не можете удалять свои сообщения
Вы не можете добавлять вложения

Перейти:  
Контактная информация: rstracker[пёсик]yandex.ru
 Вход
ppkBB3cker v.2 © 2008-2014 @ PPK
[ Time : 0.020s | 15 Queries | GZIP : Off ]

cron